  0
SECTION
  2
HEADER
  9
$ACADVER
  1
AC1012
  9
$DWGCODEPAGE
  3
ansi_1252
  9
$INSBASE
 10
0.0
 20
0.0
 30
0.0
  9
$EXTMIN
 10
0.0
 20
0.0
 30
0.0
  9
$EXTMAX
 10
210.0
 20
297.0
 30
0.0
  9
$LIMMIN
 10
0.0
 20
0.0
  9
$LIMMAX
 10
0.0
 20
0.0
  9
$ORTHOMODE
 70
         0
  9
$REGENMODE
 70
         1
  9
$FILLMODE
 70
         1
  9
$QTEXTMODE
 70
         0
  9
$MIRRTEXT
 70
         1
  9
$DRAGMODE
 70
         2
  9
$LTSCALE
 40
1.0
  9
$OSMODE
 70
         0
  9
$ATTMODE
 70
         1
  9
$TEXTSIZE
 40
3.5
  9
$TRACEWID
 40
0.05
  9
$TEXTSTYLE
  7
STANDARD
  9
$CLAYER
  8
0
  9
$CELTYPE
  6
CONTINUOUS
  9
$CECOLOR
 62
       256
  9
$CELTSCALE
 40
1.0
  9
$DELOBJ
 70
         1
  9
$DISPSILH
 70
         0
  9
$DIMSCALE
 40
1.0
  9
$DIMASZ
 40
6.0
  9
$DIMEXO
 40
1.0
  9
$DIMDLI
 40
0.38
  9
$DIMRND
 40
0.0
  9
$DIMDLE
 40
1.0
  9
$DIMEXE
 40
0.18
  9
$DIMTP
 40
0.0
  9
$DIMTM
 40
0.0
  9
$DIMTXT
 40
3.5
  9
$DIMCEN
 40
0.09
  9
$DIMTSZ
 40
0.0
  9
$DIMTOL
 70
         0
  9
$DIMLIM
 70
         0
  9
$DIMTIH
 70
         1
  9
$DIMTOH
 70
         1
  9
$DIMSE1
 70
         0
  9
$DIMSE2
 70
         0
  9
$DIMTAD
 70
         1
  9
$DIMZIN
 70
         0
  9
$DIMBLK
  1

  9
$DIMASO
 70
         1
  9
$DIMSHO
 70
         1
  9
$DIMPOST
  1

  9
$DIMAPOST
  1

  9
$DIMALT
 70
         0
  9
$DIMALTD
 70
         2
  9
$DIMALTF
 40
0.0394
  9
$DIMLFAC
 40
1.0
  9
$DIMTOFL
 70
         0
  9
$DIMTVP
 40
0.0
  9
$DIMTIX
 70
         0
  9
$DIMSOXD
 70
         0
  9
$DIMSAH
 70
         0
  9
$DIMBLK1
  1

  9
$DIMBLK2
  1

  9
$DIMSTYLE
  2
STANDARD
  9
$DIMCLRD
 70
         0
  9
$DIMCLRE
 70
         0
  9
$DIMCLRT
 70
         0
  9
$DIMTFAC
 40
1.0
  9
$DIMGAP
 40
1.0
  9
$DIMJUST
 70
         0
  9
$DIMSD1
 70
         0
  9
$DIMSD2
 70
         0
  9
$DIMTOLJ
 70
         1
  9
$DIMTZIN
 70
         0
  9
$DIMALTZ
 70
         0
  9
$DIMALTTZ
 70
         0
  9
$DIMFIT
 70
         3
  9
$DIMUPT
 70
         0
  9
$DIMUNIT
 70
         2
  9
$DIMDEC
 70
         4
  9
$DIMTDEC
 70
         4
  9
$DIMALTU
 70
         2
  9
$DIMALTTD
 70
         2
  9
$DIMTXSTY
  7
STANDARD
  9
$DIMAUNIT
 70
         0
  9
$LUNITS
 70
         2
  9
$LUPREC
 70
         2
  9
$SKETCHINC
 40
0.1
  9
$FILLETRAD
 40
0.0
  9
$AUNITS
 70
         0
  9
$AUPREC
 70
         2
  9
$MENU
  1
acad
  9
$ELEVATION
 40
0.0
  9
$PELEVATION
 40
0.0
  9
$THICKNESS
 40
0.0
  9
$LIMCHECK
 70
         0
  9
$BLIPMODE
 70
         1
  9
$CHAMFERA
 40
0.0
  9
$CHAMFERB
 40
0.0
  9
$CHAMFERC
 40
0.0
  9
$CHAMFERD
 40
0.0
  9
$SKPOLY
 70
         0
  9
$TDCREATE
 40
0.000000000
  9
$TDUPDATE
 40
0.000000000
  9
$TDINDWG
 40
0.0000000000
  9
$TDUSRTIMER
 40
0.0000000000
  9
$USRTIMER
 70
         1
  9
$ANGBASE
 50
0.0
  9
$ANGDIR
 70
         0
  9
$PDMODE
 70
         0
  9
$PDSIZE
 40
-1.0
  9
$PLINEWID
 40
0.0
  9
$COORDS
 70
         0
  9
$SPLFRAME
 70
         0
  9
$SPLINETYPE
 70
         6
  9
$SPLINESEGS
 70
         8
  9
$ATTDIA
 70
         0
  9
$ATTREQ
 70
         1
  9
$HANDLING
 70
         1
  9
$HANDSEED
  5
181
  9
$SURFTAB1
 70
         6
  9
$SURFTAB2
 70
         6
  9
$SURFTYPE
 70
         6
  9
$SURFU
 70
         6
  9
$SURFV
 70
         6
  9
$UCSNAME
  2

  9
$UCSORG
 10
0.0
 20
0.0
 30
0.0
  9
$UCSXDIR
 10
1.0
 20
0.0
 30
0.0
  9
$UCSYDIR
 10
0.0
 20
1.0
 30
0.0
  9
$PUCSNAME
  2

  9
$PUCSORG
 10
0.0
 20
0.0
 30
0.0
  9
$PUCSXDIR
 10
1.0
 20
0.0
 30
0.0
  9
$PUCSYDIR
 10
0.0
 20
1.0
 30
0.0
  9
$USERI1
 70
         0
  9
$USERI2
 70
         0
  9
$USERI3
 70
         0
  9
$USERI4
 70
         0
  9
$USERI5
 70
         0
  9
$USERR1
 40
0.0
  9
$USERR2
 40
0.0
  9
$USERR3
 40
0.0
  9
$USERR4
 40
0.0
  9
$USERR5
 40
0.0
  9
$WORLDVIEW
 70
         1
  9
$SHADEDGE
 70
         3
  9
$SHADEDIF
 70
        70
  9
$TILEMODE
 70
         1
  9
$MAXACTVP
 70
        16
  9
$PINSBASE
 10
0.0
 20
0.0
 30
0.0
  9
$PLIMCHECK
 70
         0
  9
$PEXTMIN
 10
1.0000000000E+20
 20
1.0000000000E+20
 30
1.0000000000E+20
  9
$PEXTMAX
 10
-1.0000000000E+20
 20
-1.0000000000E+20
 30
-1.0000000000E+20
  9
$PLIMMIN
 10
0.0
 20
0.0
  9
$PLIMMAX
 10
12.0
 20
9.0
  9
$UNITMODE
 70
         0
  9
$VISRETAIN
 70
         0
  9
$PLINEGEN
 70
         1
  9
$PSLTSCALE
 70
         1
  9
$TREEDEPTH
 70
      3020
  9
$PICKSTYLE
 70
         1
  9
$CMLSTYLE
  2
STANDARD
  9
$CMLJUST
 70
         0
  9
$CMLSCALE
 40
1.0
  9
$SAVEIMAGES
 70
         0
  0
ENDSEC
  0
SECTION
  2
CLASSES
  0
CLASS
  1
LWPOLYLINE
  2
AcDbPolyline
  3
"AutoCAD"
 90
        0
280
         0
281
         1
  0
CLASS
  1
IMAGE
  2
AcDbRasterImage
  3
ISM
 90
      127
280
         0
281
         1
  0
CLASS
  1
OLE2FRAME
  2
AcDbOle2Frame
  3
""
 90
        0
280
         0
281
         1
  0
CLASS
  1
HATCH
  2
AcDbHatch
  3
"ACAD_SEDONA"
 90
        0
280
         0
281
         1
  0
CLASS
  1
DICTIONARYVAR
  2
AcDbDictionaryVar
  3
"AutoCAD"
 90
        0
280
         0
281
         0
  0
CLASS
  1
RASTERVARIABLES
  2
AcDbRasterVariables
  3
ISM
 90
        0
280
         0
281
         0
  0
CLASS
  1
IMAGEDEF
  2
AcDbRasterImageDef
  3
ISM
 90
        0
280
         0
281
         0
  0
CLASS
  1
IMAGEDEF_REACTOR
  2
AcDbRasterImageDefReactor
  3
ISM
 90
        1
280
         0
281
         0
  0
CLASS
  1
IDBUFFER
  2
AcDbIdBuffer
  3
"Acad"
 90
        0
280
         0
281
         0
  0
CLASS
  1
SPATIAL_FILTER
  2
AcDbSpatialFilter
  3
"Acad"
 90
        0
280
         0
281
         0
  0
CLASS
  1
XRECORD
  2
AcDbXrecord
  3
"<Built In>"
 90
        0
280
         0
281
         0
  0
CLASS
  1
SORTENTSTABLE
  2
AcDbSortentsTable
  3
"AutoCAD"
 90
        0
280
         0
281
         0
  0
CLASS
  1
LAYER_INDEX
  2
AcDbLayerIndex
  3
"Acad"
 90
        0
280
         0
281
         0
  0
CLASS
  1
SPATIAL_INDEX
  2
AcDbSpatialIndex
  3
"Acad"
 90
        0
280
         0
281
         0
  0
CLASS
  1
OBJECT_PTR
  2
CAseDLPNTableRecord
  3
"ASE-LPNTableRecord"
 90
        1
280
         0
281
         0
  0
CLASS
  1
LAYOUT
  2
AcDbLayout
  3
"AutoCAD 2000"
 90
        1
280
         0
281
         0
  0
CLASS
  1
PLOTSETTINGS
  2
AcDbPlotSettings
  3
"AutoCAD 2000"
 90
        1
280
         0
281
         0
  0
CLASS
  1
ACDBDICTIONARYWDFLT
  2
AcDbDictionaryWithDefault
  3
"AutoCAD 2000"
 90
        1
280
         0
281
         0
  0
CLASS
  1
ACDBPLACEHOLDER
  2
AcDbPlaceHolder
  3
"AutoCAD 2000"
 90
        1
280
         0
281
         0
  0
CLASS
  1
VBA_PROJECT
  2
AcDbVbaProject
  3
"acadvba"
 90
        1
280
         0
281
         0
  0
CLASS
  1
WIPEOUT
  2
AcDbWipeout
  3
WipeOut|AutoCAD Express Tool|expresstools@autodesk.com
 90
      127
280
         0
281
         1
  0
CLASS
  1
WIPEOUTVARIABLES
  2
AcDbWipeoutVariables
  3
WipeOut|AutoCAD Express Tool|expresstools@autodesk.com
 90
        0
280
         0
281
         0
  0
CLASS
  1
RTEXT
  2
RText
  3
RText|AutoCAD Express Tool|expresstools@autodesk.com
 90
        0
280
         0
281
         1
  0
CLASS
  1
ARCALIGNEDTEXT
  2
AcDbArcAlignedText
  3
ATEXT|AutoCAD Express Tool|expresstools@autodesk.com
 90
        0
280
         0
281
         1
  0
ENDSEC
  0
SECTION
  2
TABLES
  0
TABLE
  2
VPORT
  5
7
100
AcDbSymbolTable
 70
         1
  0
VPORT
  5
15
100
AcDbSymbolTableRecord
100
AcDbViewportTableRecord
  2
*ACTIVE
 70
         0
 10
0.0
 20
0.0
 11
1.0
 21
1.0
 12
105.0
 22
148.5
 13
0.0
 23
0.0
 14
1.0
 24
1.0
 15
0.0
 25
0.0
 16
0.0
 26
0.0
 36
1.0
 17
0.0
 27
0.0
 37
0.0
 40
297.0
 41
1.4142857143
 42
50.0
 43
0.0
 44
0.0
 50
0.0
 51
0.0
 71
         0
 72
      2000
 73
         1
 74
         1
 75
         0
 76
         0
 77
         0
 78
         0
  0
ENDTAB
  0
TABLE
  2
LTYPE
  5
4
100
AcDbSymbolTable
 70
         8
  0
LTYPE
  5
11
100
AcDbSymbolTableRecord
100
AcDbLinetypeTableRecord
  2
BYBLOCK
 70
        64
  3

 72
        65
 73
         0
 40
0.0
  0
LTYPE
  5
12
100
AcDbSymbolTableRecord
100
AcDbLinetypeTableRecord
  2
BYLAYER
 70
        64
  3

 72
        65
 73
         0
 40
0.0
  0
LTYPE
  5
13
100
AcDbSymbolTableRecord
100
AcDbLinetypeTableRecord
  2
CONTINUOUS
 70
        64
  3
Solid line
 72
        65
 73
         0
 40
0.0
  0
LTYPE
  5
1E
100
AcDbSymbolTableRecord
100
AcDbLinetypeTableRecord
  2
HIDDEN
 70
        64
  3
Hidden __ __ __ __ __ __ __ __ __ __ __ __ __ __
 72
        65
 73
         2
 40
1.905
 49
1.27
 74
         0
 49
-0.635
 74
         0
  0
LTYPE
  5
1F
100
AcDbSymbolTableRecord
100
AcDbLinetypeTableRecord
  2
PHANTOM
 70
        64
  3
Phantom ______  __  __  ______  __  __  ______
 72
        65
 73
         6
 40
12.7
 49
6.35
 74
         0
 49
-1.27
 74
         0
 49
1.27
 74
         0
 49
-1.27
 74
         0
 49
1.27
 74
         0
 49
-1.27
 74
         0
  0
LTYPE
  5
20
100
AcDbSymbolTableRecord
100
AcDbLinetypeTableRecord
  2
CENTER
 70
        64
  3
Center ____ _ ____ _ ____ _ ____ _ ____ _ ____
 72
        65
 73
         4
 40
10.16
 49
6.35
 74
         0
 49
-1.27
 74
         0
 49
1.27
 74
         0
 49
-1.27
 74
         0
  0
LTYPE
  5
21
100
AcDbSymbolTableRecord
100
AcDbLinetypeTableRecord
  2
CENTERX2
 70
        64
  3
Center (2x) ________  __  ________  __  _____
 72
        65
 73
         4
 40
20.32
 49
12.7
 74
         0
 49
-2.54
 74
         0
 49
2.54
 74
         0
 49
-2.54
 74
         0
  0
LTYPE
  5
22
100
AcDbSymbolTableRecord
100
AcDbLinetypeTableRecord
  2
DOT2
 70
        64
  3
Dot (.5x) ........................................
 72
        65
 73
         2
 40
0.635
 49
0.0
 74
         0
 49
-0.635
 74
         0
  0
ENDTAB
  0
TABLE
  2
LAYER
  5
2
100
AcDbSymbolTable
 70
         2
  0
LAYER
  5
14
100
AcDbSymbolTableRecord
100
AcDbLayerTableRecord
  2
0
 70
         0
 62
         7
  6
CONTINUOUS
  0
LAYER
  5
26
100
AcDbSymbolTableRecord
100
AcDbLayerTableRecord
  2
DEFPOINTS
 70
         0
 62
         7
  6
CONTINUOUS
  0
ENDTAB
  0
TABLE
  2
STYLE
  5
3
100
AcDbSymbolTable
 70
         2
  0
STYLE
  5
17
100
AcDbSymbolTableRecord
100
AcDbTextStyleTableRecord
  2
STANDARD
 70
         0
 40
0.0
 41
1.0
 50
0.0
 71
         0
 42
0.0
  3
txt
  4

  0
STYLE
  5
52
100
AcDbSymbolTableRecord
100
AcDbTextStyleTableRecord
  2
SLDTEXTSTYLE0
 70
         0
 40
0.0
 41
0.75
 50
0.0
 71
         0
 42
0.0
  3
txt
  4

  0
ENDTAB
  0
TABLE
  2
VIEW
  5
5
100
AcDbSymbolTable
 70
         0
  0
ENDTAB
  0
TABLE
  2
UCS
  5
6
100
AcDbSymbolTable
 70
         0
  0
ENDTAB
  0
TABLE
  2
APPID
  5
8
100
AcDbSymbolTable
 70
         1
  0
APPID
  5
16
100
AcDbSymbolTableRecord
100
AcDbRegAppTableRecord
  2
ACAD
 70
         0
  0
ENDTAB
  0
TABLE
  2
DIMSTYLE
  5
9
100
AcDbSymbolTable
 70
         4
  0
DIMSTYLE
105
18
100
AcDbSymbolTableRecord
100
AcDbDimStyleTableRecord
  2
STANDARD
 70
         0
  3

  4

  5

  6

  7

 40
1.0
 41
0.18
 42
0.0625
 43
0.38
 44
0.18
 45
0.0
 46
0.0
 47
0.0
 48
0.0
 71
         0
 72
         0
 73
         1
 74
         1
 75
         0
 76
         0
 77
         0
 78
         0
140
0.18
141
0.09
142
0.0
143
25.4
144
1.0
145
0.0
146
1.0
147
0.09
170
         0
171
         2
172
         0
173
         0
174
         0
175
         0
176
         0
177
         0
178
         0
270
         2
271
         4
272
         4
273
         2
274
         2
275
         0
280
         0
281
         0
282
         0
283
         1
284
         0
285
         0
286
         0
287
         0
288
         0
340
17
  0
DIMSTYLE
105
FE
100
AcDbSymbolTableRecord
100
AcDbDimStyleTableRecord
  2
SLDDIMSTYLE0
 70
         0
  3

  4

  5

  6
_CLOSED
  7
_CLOSED
 40
1.0
 41
6.0
 42
0.0625
 43
0.38
 44
1.0
 45
0.0
 46
0.0
 47
0.0
 48
0.0
 71
         0
 72
         0
 73
         1
 74
         1
 75
         0
 76
         0
 77
         0
 78
        12
140
3.5
141
0.09
142
0.0
143
25.4
144
1.0
145
0.0
146
1.0
147
0.875
170
         0
171
         2
172
         0
173
         1
174
         0
175
         0
176
         7
177
         7
178
         7
270
         2
271
         2
272
         4
273
         2
274
         2
275
         0
280
         0
281
         0
282
         0
283
         1
284
        12
285
         0
286
         0
287
         0
288
         0
340
17
  0
DIMSTYLE
105
154
100
AcDbSymbolTableRecord
100
AcDbDimStyleTableRecord
  2
SLDDIMSTYLE1
 70
         0
  3

  4

  5

  6
_CLOSED
  7
_CLOSED
 40
1.0
 41
6.0
 42
0.0625
 43
0.38
 44
1.0
 45
0.0
 46
0.0
 47
0.0
 48
0.0
 71
         0
 72
         0
 73
         1
 74
         1
 75
         0
 76
         0
 77
         0
 78
        12
140
3.5
141
0.09
142
0.0
143
25.4
144
1.0
145
0.0
146
1.0
147
0.875
170
         0
171
         2
172
         0
173
         1
174
         0
175
         0
176
         7
177
         7
178
         7
270
         2
271
         2
272
         4
273
         2
274
         2
275
         0
280
         0
281
         0
282
         0
283
         1
284
        12
285
         0
286
         0
287
         0
288
         0
340
17
  0
DIMSTYLE
105
160
100
AcDbSymbolTableRecord
100
AcDbDimStyleTableRecord
  2
SLDDIMSTYLE2
 70
         0
  3

  4

  5

  6
_CLOSED
  7
_CLOSED
 40
1.0
 41
6.0
 42
0.0625
 43
0.38
 44
1.0
 45
0.0
 46
0.0
 47
0.0
 48
0.0
 71
         0
 72
         0
 73
         1
 74
         1
 75
         0
 76
         0
 77
         0
 78
        12
140
3.5
141
0.09
142
0.0
143
25.4
144
1.0
145
0.0
146
1.0
147
0.875
170
         0
171
         2
172
         1
173
         1
174
         0
175
         0
176
         7
177
         7
178
         7
270
         2
271
         2
272
         4
273
         2
274
         2
275
         0
280
         0
281
         0
282
         0
283
         1
284
        12
285
         0
286
         0
287
         0
288
         0
340
17
  0
ENDTAB
  0
TABLE
  2
BLOCK_RECORD
  5
1
100
AcDbSymbolTable
 70
        22
  0
BLOCK_RECORD
  5
A
100
AcDbSymbolTableRecord
100
AcDbBlockTableRecord
  2
*MODEL_SPACE
  0
BLOCK_RECORD
  5
B
100
AcDbSymbolTableRecord
100
AcDbBlockTableRecord
  2
*PAPER_SPACE
  0
BLOCK_RECORD
  5
5D
100
AcDbSymbolTableRecord
100
AcDbBlockTableRecord
  2
NOTE10
  0
BLOCK_RECORD
  5
61
100
AcDbSymbolTableRecord
100
AcDbBlockTableRecord
  2
NOTE11
  0
BLOCK_RECORD
  5
66
100
AcDbSymbolTableRecord
100
AcDbBlockTableRecord
  2
NOTE13
  0
BLOCK_RECORD
  5
6A
100
AcDbSymbolTableRecord
100
AcDbBlockTableRecord
  2
NOTE14
  0
BLOCK_RECORD
  5
6E
100
AcDbSymbolTableRecord
100
AcDbBlockTableRecord
  2
NOTE15
  0
BLOCK_RECORD
  5
72
100
AcDbSymbolTableRecord
100
AcDbBlockTableRecord
  2
NOTE16
  0
BLOCK_RECORD
  5
76
100
AcDbSymbolTableRecord
100
AcDbBlockTableRecord
  2
NOTE17
  0
BLOCK_RECORD
  5
7A
100
AcDbSymbolTableRecord
100
AcDbBlockTableRecord
  2
NOTE18
  0
BLOCK_RECORD
  5
7E
100
AcDbSymbolTableRecord
100
AcDbBlockTableRecord
  2
NOTE19
  0
BLOCK_RECORD
  5
82
100
AcDbSymbolTableRecord
100
AcDbBlockTableRecord
  2
NOTE20
  0
BLOCK_RECORD
  5
86
100
AcDbSymbolTableRecord
100
AcDbBlockTableRecord
  2
NOTE21
  0
BLOCK_RECORD
  5
8A
100
AcDbSymbolTableRecord
100
AcDbBlockTableRecord
  2
NOTE22
  0
BLOCK_RECORD
  5
8E
100
AcDbSymbolTableRecord
100
AcDbBlockTableRecord
  2
NOTE23
  0
BLOCK_RECORD
  5
93
100
AcDbSymbolTableRecord
100
AcDbBlockTableRecord
  2
NOTE25
  0
BLOCK_RECORD
  5
97
100
AcDbSymbolTableRecord
100
AcDbBlockTableRecord
  2
NOTE26
  0
BLOCK_RECORD
  5
ED
100
AcDbSymbolTableRecord
100
AcDbBlockTableRecord
  2
*D15
  0
BLOCK_RECORD
  5
F5
100
AcDbSymbolTableRecord
100
AcDbBlockTableRecord
  2
_CLOSED
  0
BLOCK_RECORD
  5
103
100
AcDbSymbolTableRecord
100
AcDbBlockTableRecord
  2
*D17
  0
BLOCK_RECORD
  5
14B
100
AcDbSymbolTableRecord
100
AcDbBlockTableRecord
  2
*D18
  0
BLOCK_RECORD
  5
159
100
AcDbSymbolTableRecord
100
AcDbBlockTableRecord
  2
*D19
  0
BLOCK_RECORD
  5
165
100
AcDbSymbolTableRecord
100
AcDbBlockTableRecord
  2
SW_CENTERMARK0
  0
BLOCK_RECORD
  5
172
100
AcDbSymbolTableRecord
100
AcDbBlockTableRecord
  2
SW_CENTERMARK1
  0
ENDTAB
  0
ENDSEC
  0
SECTION
  2
BLOCKS
  0
BLOCK
  5
D
100
AcDbEntity
  8
0
100
AcDbBlockBegin
  2
*MODEL_SPACE
 70
         0
 10
0.0
 20
0.0
 30
0.0
  3
*MODEL_SPACE
  1

  0
ENDBLK
  5
E
100
AcDbEntity
  8
0
100
AcDbBlockEnd
  0
BLOCK
  5
F
100
AcDbEntity
 67
         1
  8
0
100
AcDbBlockBegin
  2
*PAPER_SPACE
 70
         0
 10
0.0
 20
0.0
 30
0.0
  3
*PAPER_SPACE
  1

  0
ENDBLK
  5
10
100
AcDbEntity
 67
         1
  8
0
100
AcDbBlockEnd
  0
BLOCK
  5
5E
100
AcDbEntity
  8
0
 62
         0
100
AcDbBlockBegin
  2
NOTE10
 70
         0
 10
0.0
 20
0.0
 30
0.0
  3
NOTE10
  1

  0
ENDBLK
  5
5F
100
AcDbEntity
  8
0
100
AcDbBlockEnd
  0
BLOCK
  5
62
100
AcDbEntity
  8
0
 62
         0
100
AcDbBlockBegin
  2
NOTE11
 70
         0
 10
0.0
 20
0.0
 30
0.0
  3
NOTE11
  1

  0
ENDBLK
  5
63
100
AcDbEntity
  8
0
100
AcDbBlockEnd
  0
BLOCK
  5
67
100
AcDbEntity
  8
0
 62
         0
100
AcDbBlockBegin
  2
NOTE13
 70
         0
 10
0.0
 20
0.0
 30
0.0
  3
NOTE13
  1

  0
ENDBLK
  5
68
100
AcDbEntity
  8
0
100
AcDbBlockEnd
  0
BLOCK
  5
6B
100
AcDbEntity
  8
0
 62
         0
100
AcDbBlockBegin
  2
NOTE14
 70
         0
 10
0.0
 20
0.0
 30
0.0
  3
NOTE14
  1

  0
ENDBLK
  5
6C
100
AcDbEntity
  8
0
100
AcDbBlockEnd
  0
BLOCK
  5
6F
100
AcDbEntity
  8
0
 62
         0
100
AcDbBlockBegin
  2
NOTE15
 70
         0
 10
0.0
 20
0.0
 30
0.0
  3
NOTE15
  1

  0
ENDBLK
  5
70
100
AcDbEntity
  8
0
100
AcDbBlockEnd
  0
BLOCK
  5
73
100
AcDbEntity
  8
0
 62
         0
100
AcDbBlockBegin
  2
NOTE16
 70
         0
 10
0.0
 20
0.0
 30
0.0
  3
NOTE16
  1

  0
ENDBLK
  5
74
100
AcDbEntity
  8
0
100
AcDbBlockEnd
  0
BLOCK
  5
77
100
AcDbEntity
  8
0
 62
         0
100
AcDbBlockBegin
  2
NOTE17
 70
         0
 10
0.0
 20
0.0
 30
0.0
  3
NOTE17
  1

  0
ENDBLK
  5
78
100
AcDbEntity
  8
0
100
AcDbBlockEnd
  0
BLOCK
  5
7B
100
AcDbEntity
  8
0
 62
         0
100
AcDbBlockBegin
  2
NOTE18
 70
         0
 10
0.0
 20
0.0
 30
0.0
  3
NOTE18
  1

  0
ENDBLK
  5
7C
100
AcDbEntity
  8
0
100
AcDbBlockEnd
  0
BLOCK
  5
7F
100
AcDbEntity
  8
0
 62
         0
100
AcDbBlockBegin
  2
NOTE19
 70
         0
 10
0.0
 20
0.0
 30
0.0
  3
NOTE19
  1

  0
ENDBLK
  5
80
100
AcDbEntity
  8
0
100
AcDbBlockEnd
  0
BLOCK
  5
83
100
AcDbEntity
  8
0
 62
         0
100
AcDbBlockBegin
  2
NOTE20
 70
         0
 10
0.0
 20
0.0
 30
0.0
  3
NOTE20
  1

  0
ENDBLK
  5
84
100
AcDbEntity
  8
0
100
AcDbBlockEnd
  0
BLOCK
  5
87
100
AcDbEntity
  8
0
 62
         0
100
AcDbBlockBegin
  2
NOTE21
 70
         0
 10
0.0
 20
0.0
 30
0.0
  3
NOTE21
  1

  0
ENDBLK
  5
88
100
AcDbEntity
  8
0
100
AcDbBlockEnd
  0
BLOCK
  5
8B
100
AcDbEntity
  8
0
 62
         0
100
AcDbBlockBegin
  2
NOTE22
 70
         0
 10
0.0
 20
0.0
 30
0.0
  3
NOTE22
  1

  0
ENDBLK
  5
8C
100
AcDbEntity
  8
0
100
AcDbBlockEnd
  0
BLOCK
  5
8F
100
AcDbEntity
  8
0
 62
         0
100
AcDbBlockBegin
  2
NOTE23
 70
         0
 10
0.0
 20
0.0
 30
0.0
  3
NOTE23
  1

  0
ENDBLK
  5
90
100
AcDbEntity
  8
0
100
AcDbBlockEnd
  0
BLOCK
  5
94
100
AcDbEntity
  8
0
 62
         0
100
AcDbBlockBegin
  2
NOTE25
 70
         0
 10
0.0
 20
0.0
 30
0.0
  3
NOTE25
  1

  0
ENDBLK
  5
95
100
AcDbEntity
  8
0
100
AcDbBlockEnd
  0
BLOCK
  5
98
100
AcDbEntity
  8
0
 62
         0
100
AcDbBlockBegin
  2
NOTE26
 70
         0
 10
0.0
 20
0.0
 30
0.0
  3
NOTE26
  1

  0
ENDBLK
  5
99
100
AcDbEntity
  8
0
100
AcDbBlockEnd
  0
BLOCK
  5
EE
100
AcDbEntity
  8
0
 62
         7
100
AcDbBlockBegin
  2
*D15
 70
         1
 10
0.0
 20
0.0
 30
0.0
  3
*D15
  1

  0
MTEXT
  5
EF
100
AcDbEntity
  8
0
 62
         7
100
AcDbMText
 10
31.9770957978
 20
234.6206220331
 30
0.0
 40
3.5
 41
0.0
 71
         7
 72
         1
  1
15
  7
SLDTEXTSTYLE0
 11
0.0
 21
1.0
 31
0.0
  0
LINE
  5
F0
100
AcDbEntity
  8
0
 62
         7
100
AcDbLine
 10
51.4467724264
 20
244.1812253118
 30
0.0
 11
32.4770957978
 21
244.1812253118
 31
0.0
  0
LINE
  5
F1
100
AcDbEntity
  8
0
 62
         7
100
AcDbLine
 10
62.6431493551
 20
229.1812253118
 30
0.0
 11
32.4770957978
 21
229.1812253118
 31
0.0
  0
LINE
  5
F2
100
AcDbEntity
  8
0
 62
         7
100
AcDbLine
 10
33.4770957978
 20
244.1812253118
 30
0.0
 11
33.4770957978
 21
256.1812253118
 31
0.0
  0
LINE
  5
F3
100
AcDbEntity
  8
0
 62
         7
100
AcDbLine
 10
33.4770957978
 20
244.1812253118
 30
0.0
 11
33.4770957978
 21
229.1812253118
 31
0.0
  0
LINE
  5
F4
100
AcDbEntity
  8
0
 62
         7
100
AcDbLine
 10
33.4770957978
 20
229.1812253118
 30
0.0
 11
33.4770957978
 21
217.1812253118
 31
0.0
  0
INSERT
  5
FC
100
AcDbEntity
  8
0
100
AcDbBlockReference
  2
_CLOSED
 10
33.4770957978
 20
244.1812253118
 30
0.0
 41
6.0
 42
6.0
 50
270.0
  0
INSERT
  5
FD
100
AcDbEntity
  8
0
100
AcDbBlockReference
  2
_CLOSED
 10
33.4770957978
 20
229.1812253118
 30
0.0
 41
6.0
 42
6.0
 50
90.0
  0
POINT
  5
FF
100
AcDbEntity
  8
DEFPOINTS
 62
         7
100
AcDbPoint
 10
52.4467724264
 20
244.1812253118
 30
0.0
  0
POINT
  5
100
100
AcDbEntity
  8
DEFPOINTS
 62
         7
100
AcDbPoint
 10
63.6431493551
 20
229.1812253118
 30
0.0
  0
ENDBLK
  5
101
100
AcDbEntity
  8
0
 62
         7
100
AcDbBlockEnd
  0
BLOCK
  5
F6
100
AcDbEntity
  8
0
100
AcDbBlockBegin
  2
_CLOSED
 70
         0
 10
0.0
 20
0.0
 30
0.0
  3
_CLOSED
  1

  0
LINE
  5
F7
100
AcDbEntity
  8
0
  6
BYBLOCK
 62
         0
100
AcDbLine
 10
-1.0
 20
0.166667
 30
0.0
 11
0.0
 21
0.0
 31
0.0
  0
LINE
  5
F8
100
AcDbEntity
  8
0
  6
BYBLOCK
 62
         0
100
AcDbLine
 10
0.0
 20
0.0
 30
0.0
 11
-1.0
 21
-0.166667
 31
0.0
  0
LINE
  5
F9
100
AcDbEntity
  8
0
  6
BYBLOCK
 62
         0
100
AcDbLine
 10
-1.0
 20
0.166667
 30
0.0
 11
-1.0
 21
-0.166667
 31
0.0
  0
LINE
  5
FA
100
AcDbEntity
  8
0
  6
BYBLOCK
 62
         0
100
AcDbLine
 10
0.0
 20
0.0
 30
0.0
 11
-1.0
 21
0.0
 31
0.0
  0
ENDBLK
  5
FB
100
AcDbEntity
  8
0
100
AcDbBlockEnd
  0
BLOCK
  5
104
100
AcDbEntity
  8
0
 62
         7
100
AcDbBlockBegin
  2
*D17
 70
         1
 10
0.0
 20
0.0
 30
0.0
  3
*D17
  1

  0
MTEXT
  5
105
100
AcDbEntity
  8
0
 62
         7
100
AcDbMText
 10
185.522722124
 20
256.7960609381
 30
0.0
 40
3.5
 41
0.0
 71
         7
 72
         1
  1
4
  7
SLDTEXTSTYLE0
 11
0.0
 21
1.0
 31
0.0
  0
LINE
  5
106
100
AcDbEntity
  8
0
 62
         7
100
AcDbLine
 10
163.4467724264
 20
240.1812253118
 30
0.0
 11
188.022722124
 21
240.1812253118
 31
0.0
  0
LINE
  5
107
100
AcDbEntity
  8
0
 62
         7
100
AcDbLine
 10
163.4467724264
 20
244.1812253118
 30
0.0
 11
188.022722124
 21
244.1812253118
 31
0.0
  0
LINE
  5
108
100
AcDbEntity
  8
0
 62
         7
100
AcDbLine
 10
187.022722124
 20
240.1812253118
 30
0.0
 11
187.022722124
 21
228.1812253118
 31
0.0
  0
LINE
  5
109
100
AcDbEntity
  8
0
 62
         7
100
AcDbLine
 10
187.022722124
 20
240.1812253118
 30
0.0
 11
187.022722124
 21
244.1812253118
 31
0.0
  0
LINE
  5
10A
100
AcDbEntity
  8
0
 62
         7
100
AcDbLine
 10
187.022722124
 20
244.1812253118
 30
0.0
 11
187.022722124
 21
260.9700283874
 31
0.0
  0
INSERT
  5
10B
100
AcDbEntity
  8
0
100
AcDbBlockReference
  2
_CLOSED
 10
187.022722124
 20
240.1812253118
 30
0.0
 41
6.0
 42
6.0
 50
90.0
  0
INSERT
  5
10C
100
AcDbEntity
  8
0
100
AcDbBlockReference
  2
_CLOSED
 10
187.022722124
 20
244.1812253118
 30
0.0
 41
6.0
 42
6.0
 50
270.0
  0
POINT
  5
10D
100
AcDbEntity
  8
DEFPOINTS
 62
         7
100
AcDbPoint
 10
162.4467724264
 20
240.1812253118
 30
0.0
  0
POINT
  5
10E
100
AcDbEntity
  8
DEFPOINTS
 62
         7
100
AcDbPoint
 10
162.4467724264
 20
244.1812253118
 30
0.0
  0
ENDBLK
  5
10F
100
AcDbEntity
  8
0
 62
         7
100
AcDbBlockEnd
  0
BLOCK
  5
14C
100
AcDbEntity
  8
0
 62
         7
100
AcDbBlockBegin
  2
*D18
 70
         1
 10
0.0
 20
0.0
 30
0.0
  3
*D18
  1

  0
MTEXT
  5
14D
100
AcDbEntity
  8
0
 62
         7
100
AcDbMText
 10
199.7717562471
 20
143.4531383608
 30
0.0
 40
3.5
 41
0.0
 71
         7
 72
         1
  1
%%c
  7
SLDTEXTSTYLE0
 11
0.0
 21
1.0
 31
0.0
  0
MTEXT
  5
14E
100
AcDbEntity
  8
0
 62
         7
100
AcDbMText
 10
199.7717562471
 20
148.5872762477
 30
0.0
 40
3.5
 41
0.0
 71
         7
 72
         1
  1
110
  7
SLDTEXTSTYLE0
 11
0.0
 21
1.0
 31
0.0
  0
LINE
  5
14F
100
AcDbEntity
  8
0
 62
         7
100
AcDbLine
 10
108.4467724264
 20
201.8138274435
 30
0.0
 11
202.2717562471
 21
201.8138274435
 31
0.0
  0
LINE
  5
150
100
AcDbEntity
  8
0
 62
         7
100
AcDbLine
 10
108.4467724264
 20
91.8138274435
 30
0.0
 11
202.2717562471
 21
91.8138274435
 31
0.0
  0
LINE
  5
151
100
AcDbEntity
  8
0
 62
         7
100
AcDbLine
 10
201.2717562471
 20
201.8138274435
 30
0.0
 11
201.2717562471
 21
91.8138274435
 31
0.0
  0
INSERT
  5
152
100
AcDbEntity
  8
0
100
AcDbBlockReference
  2
_CLOSED
 10
201.2717562471
 20
201.8138274435
 30
0.0
 41
6.0
 42
6.0
 50
90.0
  0
INSERT
  5
153
100
AcDbEntity
  8
0
100
AcDbBlockReference
  2
_CLOSED
 10
201.2717562471
 20
91.8138274435
 30
0.0
 41
6.0
 42
6.0
 50
270.0
  0
POINT
  5
155
100
AcDbEntity
  8
DEFPOINTS
 62
         7
100
AcDbPoint
 10
107.4467724264
 20
201.8138274435
 30
0.0
  0
POINT
  5
156
100
AcDbEntity
  8
DEFPOINTS
 62
         7
100
AcDbPoint
 10
107.4467724264
 20
91.8138274435
 30
0.0
  0
ENDBLK
  5
157
100
AcDbEntity
  8
0
 62
         7
100
AcDbBlockEnd
  0
BLOCK
  5
15A
100
AcDbEntity
  8
0
 62
         7
100
AcDbBlockBegin
  2
*D19
 70
         1
 10
0.0
 20
0.0
 30
0.0
  3
*D19
  1

  0
MTEXT
  5
15B
100
AcDbEntity
  8
0
 62
         7
100
AcDbMText
 10
108.8600793589
 20
149.2166813398
 30
0.0
 40
3.5
 41
0.0
 71
         7
 72
         1
  1
%%c
  7
SLDTEXTSTYLE0
 11
0.8599877904
 21
0.5103146092
 31
0.0
  0
MTEXT
  5
15C
100
AcDbEntity
  8
0
 62
         7
100
AcDbMText
 10
113.9065290145
 20
152.2112319747
 30
0.0
 40
3.5
 41
0.0
 71
         7
 72
         1
  1
82
  7
SLDTEXTSTYLE0
 11
0.8599877904
 21
0.5103146092
 31
0.0
  0
LINE
  5
15D
100
AcDbEntity
  8
0
 62
         7
100
AcDbLine
 10
142.7062718332
 20
167.73672642
 30
0.0
 11
72.1872730197
 21
125.8909284669
 31
0.0
  0
INSERT
  5
15E
100
AcDbEntity
  8
0
100
AcDbBlockReference
  2
_CLOSED
 10
72.1872730197
 20
125.8909284669
 30
0.0
 41
6.0
 42
6.0
 50
210.6847879734
  0
INSERT
  5
15F
100
AcDbEntity
  8
0
100
AcDbBlockReference
  2
_CLOSED
 10
142.7062718332
 20
167.73672642
 30
0.0
 41
6.0
 42
6.0
 50
30.6847879734
  0
POINT
  5
161
100
AcDbEntity
  8
DEFPOINTS
 62
         7
100
AcDbPoint
 10
72.1872730197
 20
125.8909284669
 30
0.0
  0
POINT
  5
162
100
AcDbEntity
  8
DEFPOINTS
 62
         7
100
AcDbPoint
 10
142.7062718332
 20
167.73672642
 30
0.0
  0
ENDBLK
  5
163
100
AcDbEntity
  8
0
100
AcDbBlockEnd
  0
BLOCK
  5
166
100
AcDbEntity
  8
0
 62
         0
100
AcDbBlockBegin
  2
SW_CENTERMARK0
 70
         0
 10
0.0
 20
0.0
 30
0.0
  3
SW_CENTERMARK0
  1

  0
LINE
  5
167
100
AcDbEntity
  8
0
  6
CONTINUOUS
 62
         7
100
AcDbLine
 10
107.4467724264
 20
146.8138274435
 30
0.0
 11
107.4467724264
 21
149.3138274435
 31
0.0
  0
LINE
  5
168
100
AcDbEntity
  8
0
  6
CONTINUOUS
 62
         7
100
AcDbLine
 10
107.4467724264
 20
146.8138274435
 30
0.0
 11
104.9467724264
 21
146.8138274435
 31
0.0
  0
LINE
  5
169
100
AcDbEntity
  8
0
  6
CONTINUOUS
 62
         7
100
AcDbLine
 10
107.4467724264
 20
146.8138274435
 30
0.0
 11
107.4467724264
 21
144.3138274435
 31
0.0
  0
LINE
  5
16A
100
AcDbEntity
  8
0
  6
CONTINUOUS
 62
         7
100
AcDbLine
 10
107.4467724264
 20
146.8138274435
 30
0.0
 11
109.9467724264
 21
146.8138274435
 31
0.0
  0
LINE
  5
16B
100
AcDbEntity
  8
0
  6
CONTINUOUS
 62
         7
100
AcDbLine
 10
107.4467724264
 20
151.8138274435
 30
0.0
 11
107.4467724264
 21
204.3138274435
 31
0.0
  0
LINE
  5
16C
100
AcDbEntity
  8
0
  6
CONTINUOUS
 62
         7
100
AcDbLine
 10
102.4467724264
 20
146.8138274435
 30
0.0
 11
49.9467724264
 21
146.8138274435
 31
0.0
  0
LINE
  5
16D
100
AcDbEntity
  8
0
  6
CONTINUOUS
 62
         7
100
AcDbLine
 10
107.4467724264
 20
141.8138274435
 30
0.0
 11
107.4467724264
 21
89.3138274435
 31
0.0
  0
LINE
  5
16E
100
AcDbEntity
  8
0
  6
CONTINUOUS
 62
         7
100
AcDbLine
 10
112.4467724264
 20
146.8138274435
 30
0.0
 11
164.9467724264
 21
146.8138274435
 31
0.0
  0
ENDBLK
  5
170
100
AcDbEntity
  8
0
100
AcDbBlockEnd
  0
BLOCK
  5
173
100
AcDbEntity
  8
0
 62
         0
100
AcDbBlockBegin
  2
SW_CENTERMARK1
 70
         0
 10
0.0
 20
0.0
 30
0.0
  3
SW_CENTERMARK1
  1

  0
LINE
  5
174
100
AcDbEntity
  8
0
  6
CONTINUOUS
 62
         7
100
AcDbLine
 10
107.4467724264
 20
146.8138274435
 30
0.0
 11
107.4467724264
 21
149.3138274435
 31
0.0
  0
LINE
  5
175
100
AcDbEntity
  8
0
  6
CONTINUOUS
 62
         7
100
AcDbLine
 10
107.4467724264
 20
146.8138274435
 30
0.0
 11
104.9467724264
 21
146.8138274435
 31
0.0
  0
LINE
  5
176
100
AcDbEntity
  8
0
  6
CONTINUOUS
 62
         7
100
AcDbLine
 10
107.4467724264
 20
146.8138274435
 30
0.0
 11
107.4467724264
 21
144.3138274435
 31
0.0
  0
LINE
  5
177
100
AcDbEntity
  8
0
  6
CONTINUOUS
 62
         7
100
AcDbLine
 10
107.4467724264
 20
146.8138274435
 30
0.0
 11
109.9467724264
 21
146.8138274435
 31
0.0
  0
LINE
  5
178
100
AcDbEntity
  8
0
  6
CONTINUOUS
 62
         7
100
AcDbLine
 10
107.4467724264
 20
151.8138274435
 30
0.0
 11
107.4467724264
 21
193.2857568736
 31
0.0
  0
LINE
  5
179
100
AcDbEntity
  8
0
  6
CONTINUOUS
 62
         7
100
AcDbLine
 10
102.4467724264
 20
146.8138274435
 30
0.0
 11
60.9748429963
 21
146.8138274435
 31
0.0
  0
LINE
  5
17A
100
AcDbEntity
  8
0
  6
CONTINUOUS
 62
         7
100
AcDbLine
 10
107.4467724264
 20
141.8138274435
 30
0.0
 11
107.4467724264
 21
100.3418980133
 31
0.0
  0
LINE
  5
17B
100
AcDbEntity
  8
0
  6
CONTINUOUS
 62
         7
100
AcDbLine
 10
112.4467724264
 20
146.8138274435
 30
0.0
 11
153.9187018566
 21
146.8138274435
 31
0.0
  0
ENDBLK
  5
17D
100
AcDbEntity
  8
0
100
AcDbBlockEnd
  0
ENDSEC
  0
SECTION
  2
ENTITIES
  0
LINE
  5
27
100
AcDbEntity
  8
0
  6
CONTINUOUS
 62
         7
100
AcDbLine
 10
17.8
 20
9.25
 30
0.0
 11
205.0
 21
9.25
 31
0.0
  0
LINE
  5
28
100
AcDbEntity
  8
0
  6
CONTINUOUS
 62
         7
100
AcDbLine
 10
205.0
 20
43.25
 30
0.0
 11
17.8
 21
43.25
 31
0.0
  0
LINE
  5
29
100
AcDbEntity
  8
0
  6
CONTINUOUS
 62
         7
100
AcDbLine
 10
17.8
 20
60.25
 30
0.0
 11
205.0
 21
60.25
 31
0.0
  0
LINE
  5
2A
100
AcDbEntity
  8
0
  6
CONTINUOUS
 62
         7
100
AcDbLine
 10
44.7909524338
 20
43.25
 30
0.0
 11
44.7909524338
 21
5.0
 31
0.0
  0
LINE
  5
2B
100
AcDbEntity
  8
0
  6
CONTINUOUS
 62
         7
100
AcDbLine
 10
17.8
 20
5.0
 30
0.0
 11
205.0
 21
5.0
 31
0.0
  0
LINE
  5
2C
100
AcDbEntity
  8
0
  6
CONTINUOUS
 62
         7
100
AcDbLine
 10
116.6
 20
26.25
 30
0.0
 11
17.8
 21
26.25
 31
0.0
  0
LINE
  5
2D
100
AcDbEntity
  8
0
  6
CONTINUOUS
 62
         7
100
AcDbLine
 10
116.6
 20
30.5
 30
0.0
 11
17.8
 21
30.5
 31
0.0
  0
LINE
  5
2E
100
AcDbEntity
  8
0
  6
CONTINUOUS
 62
         7
100
AcDbLine
 10
116.6
 20
34.75
 30
0.0
 11
17.8
 21
34.75
 31
0.0
  0
LINE
  5
2F
100
AcDbEntity
  8
0
  6
CONTINUOUS
 62
         7
100
AcDbLine
 10
116.6
 20
39.0
 30
0.0
 11
17.8
 21
39.0
 31
0.0
  0
LINE
  5
30
100
AcDbEntity
  8
0
  6
CONTINUOUS
 62
         7
100
AcDbLine
 10
72.4
 20
5.0
 30
0.0
 11
72.4
 21
43.25
 31
0.0
  0
LINE
  5
31
100
AcDbEntity
  8
0
  6
CONTINUOUS
 62
         7
100
AcDbLine
 10
17.8
 20
60.25
 30
0.0
 11
17.8
 21
5.0
 31
0.0
  0
LINE
  5
32
100
AcDbEntity
  8
0
  6
CONTINUOUS
 62
         7
100
AcDbLine
 10
17.8
 20
60.25
 30
0.0
 11
17.8
 21
5.0
 31
0.0
  0
LINE
  5
33
100
AcDbEntity
  8
0
  6
CONTINUOUS
 62
         7
100
AcDbLine
 10
25.6
 20
43.25
 30
0.0
 11
25.6
 21
5.0
 31
0.0
  0
LINE
  5
34
100
AcDbEntity
  8
0
  6
CONTINUOUS
 62
         7
100
AcDbLine
 10
51.6
 20
43.25
 30
0.0
 11
51.6
 21
60.25
 31
0.0
  0
LINE
  5
35
100
AcDbEntity
  8
0
  6
CONTINUOUS
 62
         7
100
AcDbLine
 10
62.1989261635
 20
43.25
 30
0.0
 11
62.1989261635
 21
5.0
 31
0.0
  0
LINE
  5
36
100
AcDbEntity
  8
0
  6
CONTINUOUS
 62
         7
100
AcDbLine
 10
82.8
 20
26.25
 30
0.0
 11
82.8
 21
43.25
 31
0.0
  0
LINE
  5
37
100
AcDbEntity
  8
0
  6
CONTINUOUS
 62
         7
100
AcDbLine
 10
72.4
 20
13.5
 30
0.0
 11
17.8
 21
13.5
 31
0.0
  0
LINE
  5
38
100
AcDbEntity
  8
0
  6
CONTINUOUS
 62
         7
100
AcDbLine
 10
98.4
 20
60.25
 30
0.0
 11
98.4
 21
22.0
 31
0.0
  0
LINE
  5
39
100
AcDbEntity
  8
0
  6
CONTINUOUS
 62
         7
100
AcDbLine
 10
72.4
 20
17.749928
 30
0.0
 11
17.8
 21
17.749928
 31
0.0
  0
LINE
  5
3A
100
AcDbEntity
  8
0
  6
CONTINUOUS
 62
         7
100
AcDbLine
 10
72.4
 20
22.0
 30
0.0
 11
17.8
 21
22.0
 31
0.0
  0
LINE
  5
3B
100
AcDbEntity
  8
0
  6
CONTINUOUS
 62
         7
100
AcDbLine
 10
72.4
 20
22.0
 30
0.0
 11
205.0
 21
22.0
 31
0.0
  0
LINE
  5
3C
100
AcDbEntity
  8
0
  6
CONTINUOUS
 62
         7
100
AcDbLine
 10
116.6
 20
60.25
 30
0.0
 11
116.6
 21
5.0
 31
0.0
  0
LINE
  5
3D
100
AcDbEntity
  8
0
  6
CONTINUOUS
 62
         7
100
AcDbLine
 10
160.8
 20
5.0
 30
0.0
 11
160.8
 21
9.25
 31
0.0
  0
LINE
  5
3E
100
AcDbEntity
  8
0
  6
CONTINUOUS
 62
         7
100
AcDbLine
 10
168.6
 20
53.875
 30
0.0
 11
168.6
 21
60.25
 31
0.0
  0
LINE
  5
3F
100
AcDbEntity
  8
0
  6
CONTINUOUS
 62
         7
100
AcDbLine
 10
192.0
 20
9.25
 30
0.0
 11
192.0
 21
22.0
 31
0.0
  0
LINE
  5
40
100
AcDbEntity
  8
0
  6
CONTINUOUS
 62
         7
100
AcDbLine
 10
205.0
 20
53.875
 30
0.0
 11
116.6
 21
53.875
 31
0.0
  0
LINE
  5
41
100
AcDbEntity
  8
0
  6
CONTINUOUS
 62
         7
100
AcDbLine
 10
205.0
 20
13.5
 30
0.0
 11
192.0
 21
13.5
 31
0.0
  0
LINE
  5
42
100
AcDbEntity
  8
0
  6
CONTINUOUS
 62
         7
100
AcDbLine
 10
12.8
 20
292.0
 30
0.0
 11
12.8
 21
5.0
 31
0.0
  0
LINE
  5
43
100
AcDbEntity
  8
0
  6
CONTINUOUS
 62
         7
100
AcDbLine
 10
17.8
 20
48.5
 30
0.0
 11
12.8
 21
48.5
 31
0.0
  0
LINE
  5
44
100
AcDbEntity
  8
0
  6
CONTINUOUS
 62
         7
100
AcDbLine
 10
12.8
 20
5.0
 30
0.0
 11
17.8
 21
5.0
 31
0.0
  0
LINE
  5
45
100
AcDbEntity
  8
0
  6
CONTINUOUS
 62
         7
100
AcDbLine
 10
17.8
 20
292.0
 30
0.0
 11
17.8
 21
5.0
 31
0.0
  0
LINE
  5
46
100
AcDbEntity
  8
0
  6
CONTINUOUS
 62
         7
100
AcDbLine
 10
205.0
 20
5.0
 30
0.0
 11
205.0
 21
292.0
 31
0.0
  0
LINE
  5
47
100
AcDbEntity
  8
0
  6
CONTINUOUS
 62
         7
100
AcDbLine
 10
205.0
 20
292.0
 30
0.0
 11
17.8
 21
292.0
 31
0.0
  0
LINE
  5
48
100
AcDbEntity
  8
0
  6
CONTINUOUS
 62
         7
100
AcDbLine
 10
12.8
 20
98.5
 30
0.0
 11
17.8
 21
98.5
 31
0.0
  0
LINE
  5
49
100
AcDbEntity
  8
0
  6
CONTINUOUS
 62
         7
100
AcDbLine
 10
12.8
 20
198.5
 30
0.0
 11
17.8
 21
198.5
 31
0.0
  0
LINE
  5
4A
100
AcDbEntity
  8
0
  6
CONTINUOUS
 62
         7
100
AcDbLine
 10
17.8
 20
248.5
 30
0.0
 11
12.8
 21
248.5
 31
0.0
  0
LINE
  5
4B
100
AcDbEntity
  8
0
  6
CONTINUOUS
 62
         7
100
AcDbLine
 10
58.9
 20
292.0
 30
0.0
 11
58.9
 21
297.0
 31
0.0
  0
LINE
  5
4C
100
AcDbEntity
  8
0
  6
CONTINUOUS
 62
         7
100
AcDbLine
 10
158.9
 20
292.0
 30
0.0
 11
158.9
 21
297.0
 31
0.0
  0
LINE
  5
4D
100
AcDbEntity
  8
0
  6
CONTINUOUS
 62
         7
100
AcDbLine
 10
17.8
 20
292.0
 30
0.0
 11
12.8
 21
292.0
 31
0.0
  0
LINE
  5
4E
100
AcDbEntity
  8
0
  6
CONTINUOUS
 62
         7
100
AcDbLine
 10
17.8
 20
292.0
 30
0.0
 11
17.8
 21
297.0
 31
0.0
  0
LINE
  5
4F
100
AcDbEntity
  8
0
  6
CONTINUOUS
 62
         7
100
AcDbLine
 10
205.0
 20
292.0
 30
0.0
 11
205.0
 21
297.0
 31
0.0
  0
LINE
  5
50
100
AcDbEntity
  8
0
  6
CONTINUOUS
 62
         7
100
AcDbLine
 10
108.9
 20
297.0
 30
0.0
 11
108.9
 21
287.0
 31
0.0
  0
LINE
  5
51
100
AcDbEntity
  8
0
  6
CONTINUOUS
 62
         7
100
AcDbLine
 10
12.8
 20
148.5
 30
0.0
 11
22.8
 21
148.5
 31
0.0
  0
MTEXT
  5
53
100
AcDbEntity
  8
0
 62
         7
100
AcDbMText
 10
14.4666666667
 20
174.750004
 30
0.0
 40
1.8520833333
 41
0.0
 71
         1
 72
         1
  1
C
  7
SLDTEXTSTYLE0
  0
MTEXT
  5
54
100
AcDbEntity
  8
0
 62
         7
100
AcDbMText
 10
83.0666696667
 20
295.750008
 30
0.0
 40
1.8520833333
 41
0.0
 71
         1
 72
         1
  1
2
  7
SLDTEXTSTYLE0
  0
MTEXT
  5
55
100
AcDbEntity
  8
0
 62
         7
100
AcDbMText
 10
133.0666696667
 20
295.750008
 30
0.0
 40
1.8520833333
 41
0.0
 71
         1
 72
         1
  1
3
  7
SLDTEXTSTYLE0
  0
MTEXT
  5
56
100
AcDbEntity
  8
0
 62
         7
100
AcDbMText
 10
33.4833363333
 20
295.750008
 30
0.0
 40
1.8520833333
 41
0.0
 71
         1
 72
         1
  1
1
  7
SLDTEXTSTYLE0
  0
MTEXT
  5
57
100
AcDbEntity
  8
0
 62
         7
100
AcDbMText
 10
183.0666606667
 20
295.750008
 30
0.0
 40
1.8520833333
 41
0.0
 71
         1
 72
         1
  1
4
  7
SLDTEXTSTYLE0
  0
MTEXT
  5
58
100
AcDbEntity
  8
0
 62
         7
100
AcDbMText
 10
14.4666666667
 20
224.750004
 30
0.0
 40
1.8520833333
 41
0.0
 71
         1
 72
         1
  1
B
  7
SLDTEXTSTYLE0
  0
MTEXT
  5
59
100
AcDbEntity
  8
0
 62
         7
100
AcDbMText
 10
14.4666666667
 20
274.750004
 30
0.0
 40
1.8520833333
 41
0.0
 71
         1
 72
         1
  1
A
  7
SLDTEXTSTYLE0
  0
MTEXT
  5
5A
100
AcDbEntity
  8
0
 62
         7
100
AcDbMText
 10
14.4666666667
 20
124.750004
 30
0.0
 40
1.8520833333
 41
0.0
 71
         1
 72
         1
  1
D
  7
SLDTEXTSTYLE0
  0
MTEXT
  5
5B
100
AcDbEntity
  8
0
 62
         7
100
AcDbMText
 10
14.4666666667
 20
74.750004
 30
0.0
 40
1.8520833333
 41
0.0
 71
         1
 72
         1
  1
E
  7
SLDTEXTSTYLE0
  0
MTEXT
  5
5C
100
AcDbEntity
  8
0
 62
         7
100
AcDbMText
 10
14.4666666667
 20
24.750004
 30
0.0
 40
1.8520833333
 41
0.0
 71
         1
 72
         1
  1
F
  7
SLDTEXTSTYLE0
  0
INSERT
  5
60
100
AcDbEntity
  8
0
100
AcDbBlockReference
  2
NOTE10
 10
0.0
 20
0.0
 30
0.0
  0
INSERT
  5
64
100
AcDbEntity
  8
0
100
AcDbBlockReference
  2
NOTE11
 10
0.0
 20
0.0
 30
0.0
  0
MTEXT
  5
65
100
AcDbEntity
  8
0
 62
         7
100
AcDbMText
 10
157.6926907631
 20
19.5600472859
 30
0.0
 40
6.35
 41
0.0
 71
         2
 72
         1
  1
Doorvoerrooster 80
  7
SLDTEXTSTYLE0
  0
INSERT
  5
69
100
AcDbEntity
  8
0
100
AcDbBlockReference
  2
NOTE13
 10
0.0
 20
0.0
 30
0.0
  0
INSERT
  5
6D
100
AcDbEntity
  8
0
100
AcDbBlockReference
  2
NOTE14
 10
0.0
 20
0.0
 30
0.0
  0
INSERT
  5
71
100
AcDbEntity
  8
0
100
AcDbBlockReference
  2
NOTE15
 10
0.0
 20
0.0
 30
0.0
  0
INSERT
  5
75
100
AcDbEntity
  8
0
100
AcDbBlockReference
  2
NOTE16
 10
0.0
 20
0.0
 30
0.0
  0
INSERT
  5
79
100
AcDbEntity
  8
0
100
AcDbBlockReference
  2
NOTE17
 10
0.0
 20
0.0
 30
0.0
  0
INSERT
  5
7D
100
AcDbEntity
  8
0
100
AcDbBlockReference
  2
NOTE18
 10
0.0
 20
0.0
 30
0.0
  0
INSERT
  5
81
100
AcDbEntity
  8
0
100
AcDbBlockReference
  2
NOTE19
 10
0.0
 20
0.0
 30
0.0
  0
INSERT
  5
85
100
AcDbEntity
  8
0
100
AcDbBlockReference
  2
NOTE20
 10
0.0
 20
0.0
 30
0.0
  0
INSERT
  5
89
100
AcDbEntity
  8
0
100
AcDbBlockReference
  2
NOTE21
 10
0.0
 20
0.0
 30
0.0
  0
INSERT
  5
8D
100
AcDbEntity
  8
0
100
AcDbBlockReference
  2
NOTE22
 10
0.0
 20
0.0
 30
0.0
  0
INSERT
  5
91
100
AcDbEntity
  8
0
100
AcDbBlockReference
  2
NOTE23
 10
0.0
 20
0.0
 30
0.0
  0
MTEXT
  5
92
100
AcDbEntity
  8
0
 62
         7
100
AcDbMText
 10
73.4178111281
 20
8.5161150386
 30
0.0
 40
1.4986
 41
0.0
 71
         1
 72
         1
  1
WEIGHT: 
  7
SLDTEXTSTYLE0
  0
INSERT
  5
96
100
AcDbEntity
  8
0
100
AcDbBlockReference
  2
NOTE25
 10
0.0
 20
0.0
 30
0.0
  0
INSERT
  5
9A
100
AcDbEntity
  8
0
100
AcDbBlockReference
  2
NOTE26
 10
0.0
 20
0.0
 30
0.0
  0
MTEXT
  5
9B
100
AcDbEntity
  8
0
 62
         7
100
AcDbMText
 10
195.9209848464
 20
19.4292757855
 30
0.0
 40
2.9104166667
 41
0.0
 71
         1
 72
         1
  1
A4
  7
SLDTEXTSTYLE0
  0
MTEXT
  5
9C
100
AcDbEntity
  8
0
 62
         7
100
AcDbMText
 10
162.2782944278
 20
8.4664857836
 30
0.0
 40
1.5
 41
0.0
 71
         1
 72
         1
  1
SHEET 1 OF 1
  7
SLDTEXTSTYLE0
  0
MTEXT
  5
9D
100
AcDbEntity
  8
0
 62
         7
100
AcDbMText
 10
117.8739661175
 20
8.4664857836
 30
0.0
 40
1.5
 41
0.0
 71
         1
 72
         1
  1
SCALE:1:1
  7
SLDTEXTSTYLE0
  0
MTEXT
  5
9E
100
AcDbEntity
  8
0
 62
         7
100
AcDbMText
 10
117.8739661175
 20
20.4350363361
 30
0.0
 40
1.5
 41
0.0
 71
         1
 72
         1
  1
DWG NO.
  7
SLDTEXTSTYLE0
  0
MTEXT
  5
9F
100
AcDbEntity
  8
0
 62
         7
100
AcDbMText
 10
117.7561869366
 20
41.8447327951
 30
0.0
 40
1.5
 41
0.0
 71
         1
 72
         1
  1
TITLE:
  7
SLDTEXTSTYLE0
  0
MTEXT
  5
A0
100
AcDbEntity
  8
0
 62
         7
100
AcDbMText
 10
171.1275816993
 20
57.9013071895
 30
0.0
 40
1.5
 41
0.0
 71
         1
 72
         1
  1
REVISION
  7
SLDTEXTSTYLE0
  0
MTEXT
  5
A1
100
AcDbEntity
  8
0
 62
         7
100
AcDbMText
 10
130.4146405229
 20
58.0993920841
 30
0.0
 40
1.5
 41
0.0
 71
         1
 72
         1
  1
DO NOT SCALE DRAWING
  7
SLDTEXTSTYLE0
  0
MTEXT
  5
A2
100
AcDbEntity
  8
0
 62
         7
100
AcDbMText
 10
73.4458623088
 20
21.5524547983
 30
0.0
 40
1.5
 41
0.0
 71
         1
 72
         1
  1
MATERIAL:
  7
SLDTEXTSTYLE0
  0
MTEXT
  5
A3
100
AcDbEntity
  8
0
 62
         7
100
AcDbMText
 10
65.0147019657
 20
42.1425777303
 30
0.0
 40
1.5
 41
0.0
 71
         1
 72
         1
  1
DATE
  7
SLDTEXTSTYLE0
  0
MTEXT
  5
A4
100
AcDbEntity
  8
0
 62
         7
100
AcDbMText
 10
47.8335875632
 20
42.1281548886
 30
0.0
 40
1.5
 41
0.0
 71
         1
 72
         1
  1
SIGNATURE
  7
SLDTEXTSTYLE0
  0
MTEXT
  5
A5
100
AcDbEntity
  8
0
 62
         7
100
AcDbMText
 10
32.1222392177
 20
42.0678811426
 30
0.0
 40
1.5
 41
0.0
 71
         1
 72
         1
  1
NAME
  7
SLDTEXTSTYLE0
  0
MTEXT
  5
A6
100
AcDbEntity
  8
0
 62
         7
100
AcDbMText
 10
99.1092156863
 20
59.5694897618
 30
0.0
 40
1.5
 41
0.0
 71
         1
 72
         1
  1
DEBUR AND \PBREAK SHARP \PEDGES
  7
SLDTEXTSTYLE0
  0
MTEXT
  5
A7
100
AcDbEntity
  8
0
 62
         7
100
AcDbMText
 10
52.1712921668
 20
59.4856705042
 30
0.0
 40
1.5
 41
0.0
 71
         1
 72
         1
  1
FINISH:
  7
SLDTEXTSTYLE0
  0
MTEXT
  5
A8
100
AcDbEntity
  8
0
 62
         7
100
AcDbMText
 10
18.3936687456
 20
59.487369993
 30
0.0
 40
1.5
 41
0.0
 71
         1
 72
         1
  1
UNLESS OTHERWISE SPECIFIED:\PDIMENSIONS ARE IN MILLIMETERS\PSURFACE FINISH:\PTOLERANCES:\P   LINEAR:\P   ANGULAR:
  7
SLDTEXTSTYLE0
  0
MTEXT
  5
A9
100
AcDbEntity
  8
0
 62
         7
100
AcDbMText
 10
18.4690428622
 20
20.9160477164
 30
0.0
 40
1.5
 41
0.0
 71
         1
 72
         1
  1
Q.A
  7
SLDTEXTSTYLE0
  0
MTEXT
  5
AA
100
AcDbEntity
  8
0
 62
         7
100
AcDbMText
 10
18.2551864991
 20
25.3001031597
 30
0.0
 40
1.5
 41
0.0
 71
         1
 72
         1
  1
MFG
  7
SLDTEXTSTYLE0
  0
MTEXT
  5
AB
100
AcDbEntity
  8
0
 62
         7
100
AcDbMText
 10
18.2017224083
 20
29.6306945122
 30
0.0
 40
1.5
 41
0.0
 71
         1
 72
         1
  1
APPV'D
  7
SLDTEXTSTYLE0
  0
MTEXT
  5
AC
100
AcDbEntity
  8
0
 62
         7
100
AcDbMText
 10
18.2104688676
 20
33.7208056691
 30
0.0
 40
1.5
 41
0.0
 71
         1
 72
         1
  1
CHK'D
  7
SLDTEXTSTYLE0
  0
MTEXT
  5
AD
100
AcDbEntity
  8
0
 62
         7
100
AcDbMText
 10
18.0121492441
 20
37.996113395
 30
0.0
 40
1.5
 41
0.0
 71
         1
 72
         1
  1
DRAWN
  7
SLDTEXTSTYLE0
  0
LINE
  5
AE
100
AcDbEntity
  8
0
  6
CONTINUOUS
 62
         7
100
AcDbLine
 10
52.4467724264
 20
244.1812253118
 30
0.0
 11
52.4467724264
 21
240.1812253118
 31
0.0
  0
LINE
  5
AF
100
AcDbEntity
  8
0
  6
CONTINUOUS
 62
         7
100
AcDbLine
 10
162.4467724264
 20
240.1812253118
 30
0.0
 11
162.4467724264
 21
244.1812253118
 31
0.0
  0
LINE
  5
B0
100
AcDbEntity
  8
0
  6
CONTINUOUS
 62
         7
100
AcDbLine
 10
120.2376935205
 20
229.1812253118
 30
0.0
 11
120.2376935205
 21
240.1812253118
 31
0.0
  0
LINE
  5
B1
100
AcDbEntity
  8
0
  6
CONTINUOUS
 62
         7
100
AcDbLine
 10
77.0132211447
 20
240.1812253118
 30
0.0
 11
77.0132211447
 21
229.1812253118
 31
0.0
  0
LINE
  5
B2
100
AcDbEntity
  8
0
  6
CONTINUOUS
 62
         7
100
AcDbLine
 10
150.0894026141
 20
229.1812253118
 30
0.0
 11
150.0894026141
 21
240.1812253118
 31
0.0
  0
LINE
  5
B3
100
AcDbEntity
  8
0
  6
CONTINUOUS
 62
         7
100
AcDbLine
 10
151.4467724264
 20
229.1812253118
 30
0.0
 11
151.4467724264
 21
240.1812253118
 31
0.0
  0
LINE
  5
B4
100
AcDbEntity
  8
0
  6
CONTINUOUS
 62
         7
100
AcDbLine
 10
60.4467724264
 20
240.1812253118
 30
0.0
 11
60.4467724264
 21
229.1812253118
 31
0.0
  0
LINE
  5
B5
100
AcDbEntity
  8
0
  6
CONTINUOUS
 62
         7
100
AcDbLine
 10
107.4467724264
 20
240.1812253118
 30
0.0
 11
162.4467724264
 21
240.1812253118
 31
0.0
  0
LINE
  5
B6
100
AcDbEntity
  8
0
  6
CONTINUOUS
 62
         7
100
AcDbLine
 10
52.4467724264
 20
240.1812253118
 30
0.0
 11
107.4467724264
 21
240.1812253118
 31
0.0
  0
LINE
  5
B7
100
AcDbEntity
  8
0
  6
CONTINUOUS
 62
         7
100
AcDbLine
 10
107.4467724264
 20
244.1812253118
 30
0.0
 11
162.4467724264
 21
244.1812253118
 31
0.0
  0
LINE
  5
B8
100
AcDbEntity
  8
0
  6
CONTINUOUS
 62
         7
100
AcDbLine
 10
52.4467724264
 20
244.1812253118
 30
0.0
 11
107.4467724264
 21
244.1812253118
 31
0.0
  0
LINE
  5
B9
100
AcDbEntity
  8
0
  6
CONTINUOUS
 62
         7
100
AcDbLine
 10
101.4456781853
 20
229.1812253118
 30
0.0
 11
101.4456781853
 21
240.1812253118
 31
0.0
  0
LINE
  5
BA
100
AcDbEntity
  8
0
  6
CONTINUOUS
 62
         7
100
AcDbLine
 10
101.4467724264
 20
229.1812253118
 30
0.0
 11
101.4467724264
 21
240.1812253118
 31
0.0
  0
LINE
  5
BB
100
AcDbEntity
  8
0
  6
CONTINUOUS
 62
         7
100
AcDbLine
 10
101.4467724264
 20
229.1812253118
 30
0.0
 11
101.4456781853
 21
229.1812253118
 31
0.0
  0
LINE
  5
BC
100
AcDbEntity
  8
0
  6
CONTINUOUS
 62
         7
100
AcDbLine
 10
113.4478666676
 20
240.1812253118
 30
0.0
 11
113.4478666676
 21
229.1812253118
 31
0.0
  0
LINE
  5
BD
100
AcDbEntity
  8
0
  6
CONTINUOUS
 62
         7
100
AcDbLine
 10
113.4478666676
 20
229.1812253118
 30
0.0
 11
113.4467724264
 21
229.1812253118
 31
0.0
  0
LINE
  5
BE
100
AcDbEntity
  8
0
  6
CONTINUOUS
 62
         7
100
AcDbLine
 10
113.4467724264
 20
229.1812253118
 30
0.0
 11
113.4467724264
 21
240.1812253118
 31
0.0
  0
LINE
  5
BF
100
AcDbEntity
  8
0
  6
CONTINUOUS
 62
         7
100
AcDbLine
 10
114.2918520326
 20
229.1812253118
 30
0.0
 11
114.2918520326
 21
240.1812253118
 31
0.0
  0
LINE
  5
C0
100
AcDbEntity
  8
0
  6
CONTINUOUS
 62
         7
100
AcDbLine
 10
120.2376935205
 20
229.1812253118
 30
0.0
 11
114.2918520326
 21
229.1812253118
 31
0.0
  0
LINE
  5
C1
100
AcDbEntity
  8
0
  6
CONTINUOUS
 62
         7
100
AcDbLine
 10
113.4467724264
 20
229.1812253118
 30
0.0
 11
101.4467724264
 21
229.1812253118
 31
0.0
  0
LINE
  5
C2
100
AcDbEntity
  8
0
  6
CONTINUOUS
 62
         7
100
AcDbLine
 10
93.9410831488
 20
229.1812253118
 30
0.0
 11
101.4456781853
 21
229.1812253118
 31
0.0
  0
LINE
  5
C3
100
AcDbEntity
  8
0
  6
CONTINUOUS
 62
         7
100
AcDbLine
 10
93.9410831488
 20
240.1812253118
 30
0.0
 11
93.9410831488
 21
229.1812253118
 31
0.0
  0
LINE
  5
C4
100
AcDbEntity
  8
0
  6
CONTINUOUS
 62
         7
100
AcDbLine
 10
113.4478666676
 20
229.1812253118
 30
0.0
 11
114.2918520326
 21
229.1812253118
 31
0.0
  0
LINE
  5
C5
100
AcDbEntity
  8
0
  6
CONTINUOUS
 62
         7
100
AcDbLine
 10
131.7660598733
 20
240.1812253118
 30
0.0
 11
131.7660598733
 21
229.1812253118
 31
0.0
  0
LINE
  5
C6
100
AcDbEntity
  8
0
  6
CONTINUOUS
 62
         7
100
AcDbLine
 10
131.7528450743
 20
229.1812253118
 30
0.0
 11
131.7528450743
 21
240.1812253118
 31
0.0
  0
LINE
  5
C7
100
AcDbEntity
  8
0
  6
CONTINUOUS
 62
         7
100
AcDbLine
 10
131.7660598733
 20
229.1812253118
 30
0.0
 11
131.7528450743
 21
229.1812253118
 31
0.0
  0
LINE
  5
C8
100
AcDbEntity
  8
0
  6
CONTINUOUS
 62
         7
100
AcDbLine
 10
83.1274849796
 20
229.1812253118
 30
0.0
 11
83.1274849796
 21
240.1812253118
 31
0.0
  0
LINE
  5
C9
100
AcDbEntity
  8
0
  6
CONTINUOUS
 62
         7
100
AcDbLine
 10
83.1406997786
 20
229.1812253118
 30
0.0
 11
83.1406997786
 21
240.1812253118
 31
0.0
  0
LINE
  5
CA
100
AcDbEntity
  8
0
  6
CONTINUOUS
 62
         7
100
AcDbLine
 10
83.1406997786
 20
229.1812253118
 30
0.0
 11
83.1274849796
 21
229.1812253118
 31
0.0
  0
LINE
  5
CB
100
AcDbEntity
  8
0
  6
CONTINUOUS
 62
         7
100
AcDbLine
 10
120.2376935205
 20
229.1812253118
 30
0.0
 11
120.952461704
 21
229.1812253118
 31
0.0
  0
LINE
  5
CC
100
AcDbEntity
  8
0
  6
CONTINUOUS
 62
         7
100
AcDbLine
 10
120.952461704
 20
229.1812253118
 30
0.0
 11
120.952461704
 21
240.1812253118
 31
0.0
  0
LINE
  5
CD
100
AcDbEntity
  8
0
  6
CONTINUOUS
 62
         7
100
AcDbLine
 10
131.7528450743
 20
229.1812253118
 30
0.0
 11
120.9412186594
 21
229.1812253118
 31
0.0
  0
LINE
  5
CE
100
AcDbEntity
  8
0
  6
CONTINUOUS
 62
         7
100
AcDbLine
 10
93.9523261934
 20
229.1812253118
 30
0.0
 11
83.1406997786
 21
229.1812253118
 31
0.0
  0
LINE
  5
CF
100
AcDbEntity
  8
0
  6
CONTINUOUS
 62
         7
100
AcDbLine
 10
82.4211182431
 20
240.1812253118
 30
0.0
 11
82.4211182431
 21
229.1812253118
 31
0.0
  0
LINE
  5
D0
100
AcDbEntity
  8
0
  6
CONTINUOUS
 62
         7
100
AcDbLine
 10
82.4211182431
 20
229.1812253118
 30
0.0
 11
77.0132211447
 21
229.1812253118
 31
0.0
  0
LINE
  5
D1
100
AcDbEntity
  8
0
  6
CONTINUOUS
 62
         7
100
AcDbLine
 10
137.7842778249
 20
229.1812253118
 30
0.0
 11
137.7842778249
 21
240.1812253118
 31
0.0
  0
LINE
  5
D2
100
AcDbEntity
  8
0
  6
CONTINUOUS
 62
         7
100
AcDbLine
 10
131.7660598733
 20
229.1812253118
 30
0.0
 11
137.7842778249
 21
229.1812253118
 31
0.0
  0
LINE
  5
D3
100
AcDbEntity
  8
0
  6
CONTINUOUS
 62
         7
100
AcDbLine
 10
82.4211182431
 20
229.1812253118
 30
0.0
 11
83.1274849796
 21
229.1812253118
 31
0.0
  0
LINE
  5
D4
100
AcDbEntity
  8
0
  6
CONTINUOUS
 62
         7
100
AcDbLine
 10
145.2448019398
 20
229.1812253118
 30
0.0
 11
145.2448019398
 21
240.1812253118
 31
0.0
  0
LINE
  5
D5
100
AcDbEntity
  8
0
  6
CONTINUOUS
 62
         7
100
AcDbLine
 10
145.2448019398
 20
229.1812253118
 30
0.0
 11
137.7629243175
 21
229.1812253118
 31
0.0
  0
LINE
  5
D6
100
AcDbEntity
  8
0
  6
CONTINUOUS
 62
         7
100
AcDbLine
 10
69.6487429131
 20
229.1812253118
 30
0.0
 11
69.6487429131
 21
240.1812253118
 31
0.0
  0
LINE
  5
D7
100
AcDbEntity
  8
0
  6
CONTINUOUS
 62
         7
100
AcDbLine
 10
77.0132211447
 20
229.1812253118
 30
0.0
 11
69.6487429131
 21
229.1812253118
 31
0.0
  0
LINE
  5
D8
100
AcDbEntity
  8
0
  6
CONTINUOUS
 62
         7
100
AcDbLine
 10
145.2675199436
 20
240.1812253118
 30
0.0
 11
145.2675199436
 21
229.1812253118
 31
0.0
  0
LINE
  5
D9
100
AcDbEntity
  8
0
  6
CONTINUOUS
 62
         7
100
AcDbLine
 10
145.2675199436
 20
229.1812253118
 30
0.0
 11
145.2448019398
 21
229.1812253118
 31
0.0
  0
LINE
  5
DA
100
AcDbEntity
  8
0
  6
CONTINUOUS
 62
         7
100
AcDbLine
 10
69.6260249092
 20
229.1812253118
 30
0.0
 11
69.6260249092
 21
240.1812253118
 31
0.0
  0
LINE
  5
DB
100
AcDbEntity
  8
0
  6
CONTINUOUS
 62
         7
100
AcDbLine
 10
69.6487429131
 20
229.1812253118
 30
0.0
 11
69.6260249092
 21
229.1812253118
 31
0.0
  0
LINE
  5
DC
100
AcDbEntity
  8
0
  6
CONTINUOUS
 62
         7
100
AcDbLine
 10
145.6963634564
 20
229.1812253118
 30
0.0
 11
145.6963634564
 21
240.1812253118
 31
0.0
  0
LINE
  5
DD
100
AcDbEntity
  8
0
  6
CONTINUOUS
 62
         7
100
AcDbLine
 10
145.2675199436
 20
229.1812253118
 30
0.0
 11
145.6963634564
 21
229.1812253118
 31
0.0
  0
LINE
  5
DE
100
AcDbEntity
  8
0
  6
CONTINUOUS
 62
         7
100
AcDbLine
 10
66.2861659163
 20
240.1812253118
 30
0.0
 11
66.2861659163
 21
229.1812253118
 31
0.0
  0
LINE
  5
DF
100
AcDbEntity
  8
0
  6
CONTINUOUS
 62
         7
100
AcDbLine
 10
66.2861659163
 20
229.1812253118
 30
0.0
 11
69.6260249092
 21
229.1812253118
 31
0.0
  0
LINE
  5
E0
100
AcDbEntity
  8
0
  6
CONTINUOUS
 62
         7
100
AcDbLine
 10
150.0894026141
 20
229.1812253118
 30
0.0
 11
145.6963634564
 21
229.1812253118
 31
0.0
  0
LINE
  5
E1
100
AcDbEntity
  8
0
  6
CONTINUOUS
 62
         7
100
AcDbLine
 10
151.2503954977
 20
229.1812253118
 30
0.0
 11
151.2503954977
 21
240.1812253118
 31
0.0
  0
LINE
  5
E2
100
AcDbEntity
  8
0
  6
CONTINUOUS
 62
         7
100
AcDbLine
 10
151.2503954977
 20
229.1812253118
 30
0.0
 11
150.0894026141
 21
229.1812253118
 31
0.0
  0
LINE
  5
E3
100
AcDbEntity
  8
0
  6
CONTINUOUS
 62
         7
100
AcDbLine
 10
63.6431493551
 20
229.1812253118
 30
0.0
 11
63.6431493551
 21
240.1812253118
 31
0.0
  0
LINE
  5
E4
100
AcDbEntity
  8
0
  6
CONTINUOUS
 62
         7
100
AcDbLine
 10
66.3134005626
 20
229.1812253118
 30
0.0
 11
63.6431493551
 21
229.1812253118
 31
0.0
  0
LINE
  5
E5
100
AcDbEntity
  8
0
  6
CONTINUOUS
 62
         7
100
AcDbLine
 10
151.2781171272
 20
240.1812253118
 30
0.0
 11
151.2781171272
 21
229.1812253118
 31
0.0
  0
LINE
  5
E6
100
AcDbEntity
  8
0
  6
CONTINUOUS
 62
         7
100
AcDbLine
 10
151.2781171272
 20
229.1812253118
 30
0.0
 11
151.2503954977
 21
229.1812253118
 31
0.0
  0
LINE
  5
E7
100
AcDbEntity
  8
0
  6
CONTINUOUS
 62
         7
100
AcDbLine
 10
63.6154277257
 20
229.1812253118
 30
0.0
 11
63.6154277257
 21
240.1812253118
 31
0.0
  0
LINE
  5
E8
100
AcDbEntity
  8
0
  6
CONTINUOUS
 62
         7
100
AcDbLine
 10
63.6431493551
 20
229.1812253118
 30
0.0
 11
63.6154277257
 21
229.1812253118
 31
0.0
  0
LINE
  5
E9
100
AcDbEntity
  8
0
  6
CONTINUOUS
 62
         7
100
AcDbLine
 10
151.2781171272
 20
229.1812253118
 30
0.0
 11
151.4467724264
 21
229.1812253118
 31
0.0
  0
LINE
  5
EA
100
AcDbEntity
  8
0
  6
CONTINUOUS
 62
         7
100
AcDbLine
 10
63.5490451537
 20
240.1812253118
 30
0.0
 11
63.5490451537
 21
229.1812253118
 31
0.0
  0
LINE
  5
EB
100
AcDbEntity
  8
0
  6
CONTINUOUS
 62
         7
100
AcDbLine
 10
63.5490451537
 20
229.1812253118
 30
0.0
 11
63.6154277257
 21
229.1812253118
 31
0.0
  0
LINE
  5
EC
100
AcDbEntity
  8
0
  6
CONTINUOUS
 62
         7
100
AcDbLine
 10
63.5490451537
 20
229.1812253118
 30
0.0
 11
60.4467724264
 21
229.1812253118
 31
0.0
  0
DIMENSION
  5
102
100
AcDbEntity
  8
0
 62
         7
100
AcDbDimension
  2
*D15
 10
33.4770957978
 20
229.1812253118
 30
0.0
 11
33.4770957978
 21
237.2070894824
 31
0.0
 70
       160
  3
SLDDIMSTYLE0
100
AcDbAlignedDimension
 13
52.4467724264
 23
244.1812253118
 33
0.0
 14
63.6431493551
 24
229.1812253118
 34
0.0
 50
90.0
100
AcDbRotatedDimension
  0
DIMENSION
  5
110
100
AcDbEntity
  8
0
 62
         7
100
AcDbDimension
  2
*D17
 10
187.022722124
 20
244.1812253118
 30
0.0
 11
187.022722124
 21
258.0892946628
 31
0.0
 70
       160
  3
SLDDIMSTYLE0
100
AcDbAlignedDimension
 13
162.4467724264
 23
240.1812253118
 33
0.0
 14
162.4467724264
 24
244.1812253118
 34
0.0
 50
90.0
100
AcDbRotatedDimension
  0
CIRCLE
  5
111
100
AcDbEntity
  8
0
  6
CONTINUOUS
 62
         7
100
AcDbCircle
 10
107.4467724264
 20
146.8138274435
 30
0.0
 40
55.0
  0
CIRCLE
  5
112
100
AcDbEntity
  8
0
  6
CONTINUOUS
 62
         7
100
AcDbCircle
 10
107.4467724264
 20
146.8138274435
 30
0.0
 40
41.0
  0
LINE
  5
113
100
AcDbEntity
  8
0
  6
CONTINUOUS
 62
         7
100
AcDbLine
 10
101.4467724264
 20
103.2531734331
 30
0.0
 11
101.1967724264
 21
96.8138274435
 31
0.0
  0
LINE
  5
114
100
AcDbEntity
  8
0
  6
CONTINUOUS
 62
         7
100
AcDbLine
 10
101.1967724264
 20
96.8138274435
 30
0.0
 11
113.6967724264
 21
96.8138274435
 31
0.0
  0
LINE
  5
115
100
AcDbEntity
  8
0
  6
CONTINUOUS
 62
         7
100
AcDbLine
 10
113.6967724264
 20
96.8138274435
 30
0.0
 11
113.4467724264
 21
103.2531734331
 31
0.0
  0
ARC
  5
116
100
AcDbEntity
  8
0
  6
CONTINUOUS
 62
         7
100
AcDbCircle
 10
107.4467724264
 20
146.8138274435
 30
0.0
 40
43.9719294301
100
AcDbArc
 50
262.1574855158
 51
277.8425144842
  0
LINE
  5
117
100
AcDbEntity
  8
0
  6
CONTINUOUS
 62
         7
100
AcDbLine
 10
83.1406997786
 20
110.1703367494
 30
0.0
 11
80.1215300462
 21
104.4771574178
 31
0.0
  0
LINE
  5
118
100
AcDbEntity
  8
0
  6
CONTINUOUS
 62
         7
100
AcDbLine
 10
80.1215300462
 20
104.4771574178
 30
0.0
 11
91.383640895
 21
99.0536106789
 31
0.0
  0
LINE
  5
119
100
AcDbEntity
  8
0
  6
CONTINUOUS
 62
         7
100
AcDbLine
 10
91.383640895
 20
99.0536106789
 30
0.0
 11
93.9523261934
 21
104.96373188
 31
0.0
  0
ARC
  5
11A
100
AcDbEntity
  8
0
  6
CONTINUOUS
 62
         7
100
AcDbCircle
 10
107.4467724264
 20
146.8138274435
 30
0.0
 40
43.9719294301
100
AcDbArc
 50
236.4431998015
 51
252.1282287699
  0
LINE
  5
11B
100
AcDbEntity
  8
0
  6
CONTINUOUS
 62
         7
100
AcDbLine
 10
69.6487429131
 20
124.3451928005
 30
0.0
 11
64.4583870414
 21
120.5257841159
 31
0.0
  0
LINE
  5
11C
100
AcDbEntity
  8
0
  6
CONTINUOUS
 62
         7
100
AcDbLine
 10
64.4583870414
 20
120.5257841159
 30
0.0
 11
72.2520095647
 21
110.7528905851
 31
0.0
  0
LINE
  5
11D
100
AcDbEntity
  8
0
  6
CONTINUOUS
 62
         7
100
AcDbLine
 10
72.2520095647
 20
110.7528905851
 30
0.0
 11
77.1306205354
 21
114.9632150109
 31
0.0
  0
ARC
  5
11E
100
AcDbEntity
  8
0
  6
CONTINUOUS
 62
         7
100
AcDbCircle
 10
107.4467724264
 20
146.8138274435
 30
0.0
 40
43.9719294301
100
AcDbArc
 50
210.7289140873
 51
226.4139430556
  0
LINE
  5
11F
100
AcDbEntity
  8
0
  6
CONTINUOUS
 62
         7
100
AcDbLine
 10
63.6431493551
 20
142.9702375024
 30
0.0
 11
57.3096209801
 21
141.7810801968
 31
0.0
  0
LINE
  5
120
100
AcDbEntity
  8
0
  6
CONTINUOUS
 62
         7
100
AcDbLine
 10
57.3096209801
 20
141.7810801968
 30
0.0
 11
60.0911326546
 21
129.5944812945
 31
0.0
  0
LINE
  5
121
100
AcDbEntity
  8
0
  6
CONTINUOUS
 62
         7
100
AcDbLine
 10
60.0911326546
 20
129.5944812945
 30
0.0
 11
66.3134005626
 21
131.2711025562
 31
0.0
  0
ARC
  5
122
100
AcDbEntity
  8
0
  6
CONTINUOUS
 62
         7
100
AcDbCircle
 10
107.4467724264
 20
146.8138274435
 30
0.0
 40
43.9719294301
100
AcDbArc
 50
185.014628373
 51
200.6996573413
  0
LINE
  5
123
100
AcDbEntity
  8
0
  6
CONTINUOUS
 62
         7
100
AcDbLine
 10
66.3134005626
 20
162.3565523307
 30
0.0
 11
60.0911326546
 21
164.0331735924
 31
0.0
  0
LINE
  5
124
100
AcDbEntity
  8
0
  6
CONTINUOUS
 62
         7
100
AcDbLine
 10
60.0911326546
 20
164.0331735924
 30
0.0
 11
57.3096209801
 21
151.8465746901
 31
0.0
  0
LINE
  5
125
100
AcDbEntity
  8
0
  6
CONTINUOUS
 62
         7
100
AcDbLine
 10
57.3096209801
 20
151.8465746901
 30
0.0
 11
63.6431493551
 21
150.6574173845
 31
0.0
  0
ARC
  5
126
100
AcDbEntity
  8
0
  6
CONTINUOUS
 62
         7
100
AcDbCircle
 10
107.4467724264
 20
146.8138274435
 30
0.0
 40
43.9719294301
100
AcDbArc
 50
159.3003426587
 51
174.985371627
  0
LINE
  5
127
100
AcDbEntity
  8
0
  6
CONTINUOUS
 62
         7
100
AcDbLine
 10
77.1306205354
 20
178.664439876
 30
0.0
 11
72.2520095647
 21
182.8747643018
 31
0.0
  0
LINE
  5
128
100
AcDbEntity
  8
0
  6
CONTINUOUS
 62
         7
100
AcDbLine
 10
72.2520095647
 20
182.8747643018
 30
0.0
 11
64.4583870414
 21
173.101870771
 31
0.0
  0
LINE
  5
129
100
AcDbEntity
  8
0
  6
CONTINUOUS
 62
         7
100
AcDbLine
 10
64.4583870414
 20
173.101870771
 30
0.0
 11
69.6487429131
 21
169.2824620864
 31
0.0
  0
ARC
  5
12A
100
AcDbEntity
  8
0
  6
CONTINUOUS
 62
         7
100
AcDbCircle
 10
107.4467724264
 20
146.8138274435
 30
0.0
 40
43.9719294301
100
AcDbArc
 50
133.5860569444
 51
149.2710859127
  0
LINE
  5
12B
100
AcDbEntity
  8
0
  6
CONTINUOUS
 62
         7
100
AcDbLine
 10
93.9523261934
 20
188.6639230069
 30
0.0
 11
91.383640895
 21
194.5740442081
 31
0.0
  0
LINE
  5
12C
100
AcDbEntity
  8
0
  6
CONTINUOUS
 62
         7
100
AcDbLine
 10
91.383640895
 20
194.5740442081
 30
0.0
 11
80.1215300462
 21
189.1504974691
 31
0.0
  0
LINE
  5
12D
100
AcDbEntity
  8
0
  6
CONTINUOUS
 62
         7
100
AcDbLine
 10
80.1215300462
 20
189.1504974691
 30
0.0
 11
83.1406997786
 21
183.4573181375
 31
0.0
  0
ARC
  5
12E
100
AcDbEntity
  8
0
  6
CONTINUOUS
 62
         7
100
AcDbCircle
 10
107.4467724264
 20
146.8138274435
 30
0.0
 40
43.9719294301
100
AcDbArc
 50
107.8717712301
 51
123.5568001985
  0
LINE
  5
12F
100
AcDbEntity
  8
0
  6
CONTINUOUS
 62
         7
100
AcDbLine
 10
113.4467724264
 20
190.3744814538
 30
0.0
 11
113.6967724264
 21
196.8138274435
 31
0.0
  0
LINE
  5
130
100
AcDbEntity
  8
0
  6
CONTINUOUS
 62
         7
100
AcDbLine
 10
113.6967724264
 20
196.8138274435
 30
0.0
 11
101.1967724264
 21
196.8138274435
 31
0.0
  0
LINE
  5
131
100
AcDbEntity
  8
0
  6
CONTINUOUS
 62
         7
100
AcDbLine
 10
101.1967724264
 20
196.8138274435
 30
0.0
 11
101.4467724264
 21
190.3744814538
 31
0.0
  0
ARC
  5
132
100
AcDbEntity
  8
0
  6
CONTINUOUS
 62
         7
100
AcDbCircle
 10
107.4467724264
 20
146.8138274435
 30
0.0
 40
43.9719294301
100
AcDbArc
 50
82.1574855158
 51
97.8425144842
  0
LINE
  5
133
100
AcDbEntity
  8
0
  6
CONTINUOUS
 62
         7
100
AcDbLine
 10
131.7528450743
 20
183.4573181375
 30
0.0
 11
134.7720148067
 21
189.1504974691
 31
0.0
  0
LINE
  5
134
100
AcDbEntity
  8
0
  6
CONTINUOUS
 62
         7
100
AcDbLine
 10
134.7720148067
 20
189.1504974691
 30
0.0
 11
123.5099039579
 21
194.5740442081
 31
0.0
  0
LINE
  5
135
100
AcDbEntity
  8
0
  6
CONTINUOUS
 62
         7
100
AcDbLine
 10
123.5099039579
 20
194.5740442081
 30
0.0
 11
120.9412186594
 21
188.6639230069
 31
0.0
  0
ARC
  5
136
100
AcDbEntity
  8
0
  6
CONTINUOUS
 62
         7
100
AcDbCircle
 10
107.4467724264
 20
146.8138274435
 30
0.0
 40
43.9719294301
100
AcDbArc
 50
56.4431998015
 51
72.1282287699
  0
LINE
  5
137
100
AcDbEntity
  8
0
  6
CONTINUOUS
 62
         7
100
AcDbLine
 10
145.2448019398
 20
169.2824620864
 30
0.0
 11
150.4351578115
 21
173.101870771
 31
0.0
  0
LINE
  5
138
100
AcDbEntity
  8
0
  6
CONTINUOUS
 62
         7
100
AcDbLine
 10
150.4351578115
 20
173.101870771
 30
0.0
 11
142.6415352882
 21
182.8747643018
 31
0.0
  0
LINE
  5
139
100
AcDbEntity
  8
0
  6
CONTINUOUS
 62
         7
100
AcDbLine
 10
142.6415352882
 20
182.8747643018
 30
0.0
 11
137.7629243175
 21
178.664439876
 31
0.0
  0
ARC
  5
13A
100
AcDbEntity
  8
0
  6
CONTINUOUS
 62
         7
100
AcDbCircle
 10
107.4467724264
 20
146.8138274435
 30
0.0
 40
43.9719294301
100
AcDbArc
 50
30.7289140873
 51
46.4139430556
  0
LINE
  5
13B
100
AcDbEntity
  8
0
  6
CONTINUOUS
 62
         7
100
AcDbLine
 10
151.2503954977
 20
150.6574173845
 30
0.0
 11
157.5839238728
 21
151.8465746901
 31
0.0
  0
LINE
  5
13C
100
AcDbEntity
  8
0
  6
CONTINUOUS
 62
         7
100
AcDbLine
 10
157.5839238728
 20
151.8465746901
 30
0.0
 11
154.8024121983
 21
164.0331735924
 31
0.0
  0
LINE
  5
13D
100
AcDbEntity
  8
0
  6
CONTINUOUS
 62
         7
100
AcDbLine
 10
154.8024121983
 20
164.0331735924
 30
0.0
 11
148.5801442903
 21
162.3565523307
 31
0.0
  0
ARC
  5
13E
100
AcDbEntity
  8
0
  6
CONTINUOUS
 62
         7
100
AcDbCircle
 10
107.4467724264
 20
146.8138274435
 30
0.0
 40
43.9719294301
100
AcDbArc
 50
5.014628373
 51
20.6996573413
  0
LINE
  5
13F
100
AcDbEntity
  8
0
  6
CONTINUOUS
 62
         7
100
AcDbLine
 10
148.5801442903
 20
131.2711025562
 30
0.0
 11
154.8024121983
 21
129.5944812945
 31
0.0
  0
LINE
  5
140
100
AcDbEntity
  8
0
  6
CONTINUOUS
 62
         7
100
AcDbLine
 10
154.8024121983
 20
129.5944812945
 30
0.0
 11
157.5839238728
 21
141.7810801968
 31
0.0
  0
LINE
  5
141
100
AcDbEntity
  8
0
  6
CONTINUOUS
 62
         7
100
AcDbLine
 10
157.5839238728
 20
141.7810801968
 30
0.0
 11
151.2503954977
 21
142.9702375024
 31
0.0
  0
ARC
  5
142
100
AcDbEntity
  8
0
  6
CONTINUOUS
 62
         7
100
AcDbCircle
 10
107.4467724264
 20
146.8138274435
 30
0.0
 40
43.9719294301
100
AcDbArc
 50
339.3003426587
 51
354.985371627
  0
LINE
  5
143
100
AcDbEntity
  8
0
  6
CONTINUOUS
 62
         7
100
AcDbLine
 10
137.7629243175
 20
114.9632150109
 30
0.0
 11
142.6415352882
 21
110.7528905851
 31
0.0
  0
LINE
  5
144
100
AcDbEntity
  8
0
  6
CONTINUOUS
 62
         7
100
AcDbLine
 10
142.6415352882
 20
110.7528905851
 30
0.0
 11
150.4351578115
 21
120.5257841159
 31
0.0
  0
LINE
  5
145
100
AcDbEntity
  8
0
  6
CONTINUOUS
 62
         7
100
AcDbLine
 10
150.4351578115
 20
120.5257841159
 30
0.0
 11
145.2448019398
 21
124.3451928005
 31
0.0
  0
ARC
  5
146
100
AcDbEntity
  8
0
  6
CONTINUOUS
 62
         7
100
AcDbCircle
 10
107.4467724264
 20
146.8138274435
 30
0.0
 40
43.9719294301
100
AcDbArc
 50
313.5860569444
 51
329.2710859127
  0
LINE
  5
147
100
AcDbEntity
  8
0
  6
CONTINUOUS
 62
         7
100
AcDbLine
 10
120.9412186594
 20
104.96373188
 30
0.0
 11
123.5099039579
 21
99.0536106789
 31
0.0
  0
LINE
  5
148
100
AcDbEntity
  8
0
  6
CONTINUOUS
 62
         7
100
AcDbLine
 10
123.5099039579
 20
99.0536106789
 30
0.0
 11
134.7720148067
 21
104.4771574178
 31
0.0
  0
LINE
  5
149
100
AcDbEntity
  8
0
  6
CONTINUOUS
 62
         7
100
AcDbLine
 10
134.7720148067
 20
104.4771574178
 30
0.0
 11
131.7528450743
 21
110.1703367494
 31
0.0
  0
ARC
  5
14A
100
AcDbEntity
  8
0
  6
CONTINUOUS
 62
         7
100
AcDbCircle
 10
107.4467724264
 20
146.8138274435
 30
0.0
 40
43.9719294301
100
AcDbArc
 50
287.8717712301
 51
303.5568001985
  0
DIMENSION
  5
158
100
AcDbEntity
  8
0
 62
         7
100
AcDbDimension
  2
*D18
 10
201.2717562471
 20
91.8138274435
 30
0.0
 11
201.2717562471
 21
149.8999084782
 31
0.0
 70
       160
  1
%%c<>
  3
SLDDIMSTYLE1
100
AcDbAlignedDimension
 13
107.4467724264
 23
201.8138274435
 33
0.0
 14
107.4467724264
 24
91.8138274435
 34
0.0
 50
90.0
100
AcDbRotatedDimension
  0
DIMENSION
  5
164
100
AcDbEntity
  8
0
100
AcDbDimension
  2
*D19
 10
142.7062718332
 20
167.73672642
 30
0.0
 11
114.3035134959
 21
150.8826004867
 31
0.0
 70
       163
  1
<>
  3
SLDDIMSTYLE2
100
AcDbDiametricDimension
 15
72.1872730197
 25
125.8909284669
 35
0.0
 40
0.0
  0
INSERT
  5
171
100
AcDbEntity
  8
0
100
AcDbBlockReference
  2
SW_CENTERMARK0
 10
0.0
 20
0.0
 30
0.0
  0
INSERT
  5
17E
100
AcDbEntity
  8
0
100
AcDbBlockReference
  2
SW_CENTERMARK1
 10
0.0
 20
0.0
 30
0.0
  0
ENDSEC
  0
SECTION
  2
OBJECTS
  0
DICTIONARY
  5
19
100
AcDbDictionary
  3
ACAD_GROUP
350
1A
  3
ACAD_MLINESTYLE
350
1B
  0
DICTIONARY
  5
1A
102
{ACAD_REACTORS
330
19
102
}
100
AcDbDictionary
  0
DICTIONARY
  5
1B
102
{ACAD_REACTORS
330
19
102
}
100
AcDbDictionary
  3
STANDARD
350
1C
  0
MLINESTYLE
  5
1C
102
{ACAD_REACTORS
330
1B
102
}
100
AcDbMlineStyle
  2
STANDARD
 70
         0
  3

 62
         0
 51
90.0
 52
90.0
 71
         2
 49
0.5
 62
       256
  6
BYLAYER
 49
-0.5
 62
       256
  6
BYLAYER
  0
ENDSEC
  0
EOF
